За последнюю неделю опубликовано 50 новых материалов.
Инструкция новичку Путеводитель по форуму Прокси для Telegram Показать подсказки , это бомба!

Скачать Хитмэн / Hitman (2007) WEBRip 1080p | D, P, A | Open Matte | Unrated бесплатно через торрент

  • Поучаствуй (в качестве покупателя) в любых пяти совместных покупках (кроме завершённых и "Моментальных") и получи группу "Новичок" навсегда -> ссылка на раздел
  • Получай до 480 рублей за каждого приглашенного пользователя!
    представляем Вам очередное расширение партнерской программы, подробности описаны тут -> ссылка
  • 90% материалов доступно к скачиванию после простой регистрации!
    Если же ты хочешь скачивать материалы без требования оставлять отзывы то получи группу "Новичок", 10 способов повышения описаны тут -> ссылка
  • К сожалению количество битых ссылок растет и мы уже не можем их оперативно восстанавливать поэтому просим помощи у каждого нашего пользователя.
    С сегодняшнего дня, за каждую восстановленную ссылку мы заплатим Вам.
    Подробнее тут -> ссылка
  • Перенесем твои заслуги с другого ресурса!
    Мы понимаем как сложно прокачивать аккаунты на форумах, вроде раскачал аккаунт, а тут появляется ресурс в 100 раз круче но тоже с системой прокачки и снова качать аккаунт...
    Предлагаем вам перенести Ваши заслуги на другом подобном ресурсе к нам.
    Подробности описаны тут -> ссылка
  • Вы можете получать по 2.5% с каждой покупки и продажи на маркете! Подробности в теме Партнёрская программа
Если Вы не хотите скачивать, Вы всегда можетепосмотретьонлайн, просто нажмите кнопку ниже :

Открыть плеер

Torrent_Bot

Торрент-Бот
Бот форума
4 Окт 2016
93
160
20



Название: Хитмэн
Оригинальное название: Hitman
Год выхода: 2007
Жанр: Боевик, Триллер, Криминал
Режиссер: Ксавьер Генс
В ролях: Тимоти Олифант, Дюгрэй Скотт, Ольга Куриленко, Роберт Нэппер, Ульрих Томсен, Генри Йен Кьюсик, Михаэль Оффей, Кристиан Эриксон, Эрик Эбони, Джо Шеридан, Джеймс Фолкнер, Жан-Марк Беллу, Никки Нод, Абду Санья, Илья Никитенко, Луи Молла, Юсеф Диавара

О фильме:
Хитмэн был обучен, как высоко профессиональный убийца, чье самое мощное оружие — это хладнокровие и безмерная гордость за свою работу. 47 — это две последние цифры на штрихкоде, вытатуированном на его затылке, а также его единственное имя.
Но охотник становится добычей, когда 47-й оказывается втянутым в политические интриги. Интерпол и русские военные начинают охоту на киллера по всей восточной Европе, в то время как он сам пытается понять, кто его подставил и почему они пытаются вывести его из игры. Но самую большую угрозу для 47-го представляет волнение его совести и незнакомые эмоции, пробудившиеся в нем после встречи с прекрасной девушкой…



Страна: США, Франция
Выпущено: Twentieth Century Fox Film Corporation, Europa Corp., Anka Film, Daybreak Productions, Dune Entertainment
Продолжительность: 01:34:13
Перевод: Дублированный, многоголосый профессиональный, авторский

Формат: MKV
Качество: WEBRip 1080p
Видео: AVC/H.264, 1920x1080, 23.976 fps, 5120 Kbps
Аудио #1: AC3, 6 ch, 448 Kbps - Русский (DUB)
Аудио #2: AC3, 6 ch, 448 Kbps - Русский (MVO Киномания)
Аудио #3: AC3, 6 ch, 448 Kbps - Русский (AVO Немахов)
Аудио #4: AC3, 6 ch, 448 Kbps - Английский
Субтитры: русские (форс., полные), английские

MediaInfo
General
Unique ID : 204735679523986534869150639720903161607 (0x9A06A857AF6F8C229D954B0E97B33707)
Complete name : D:Hitman (2007) Open Matte 1080p.mkv
Format : Matroska
Format version : Version 4
File size : 4.41 GiB
Duration : 1 h 34 min
Overall bit rate : 6 694 kb/s
Encoded date : UTC 2020-06-04 14:58:02
Writing application : mkvmerge v8.3.0 ('Over the Horizon') 32bit
Writing library : libebml v1.3.1 + libmatroska v1.4.2

Video
ID : 1
Format : AVC
Format/Info : Advanced Video Codec
Format profile : [email protected]
Format settings : CABAC / 4 Ref Frames
Format settings, CABAC : Yes
Format settings, Reference : 4 frames
Codec ID : V_MPEG4/ISO/AVC
Duration : 1 h 34 min
Bit rate : 5 120 kb/s
Width : 1 920 pixels
Height : 1 080 pixels
Display aspect ratio : 16:9
Frame rate mode : Constant
Frame rate : 23.976 (24000/1001) FPS
Color space : YUV
Chroma subsampling : 4:2:0
Bit depth : 8 bits
Scan type : Progressive
Bits/(Pixel*Frame) : 0.103
Stream size : 3.22 GiB (73%)
Writing library : x264 core 148
Encoding settings : cabac=1 / ref=3 / deblock=1:0:0 / analyse=0x3:0x113 / me=hex / subme=7 / psy=1 / psy_rd=1.00:0.00 / mixed_ref=1 / me_range=16 / chroma_me=1 / trellis=1 / 8x8dct=1 / cqm=0 / deadzone=21,11 / fast_pskip=1 / chroma_qp_offset=-2 / threads=34 / lookahead_threads=5 / sliced_threads=0 / nr=0 / decimate=1 / interlaced=0 / bluray_compat=0 / constrained_intra=0 / bframes=6 / b_pyramid=2 / b_adapt=1 / b_bias=0 / direct=1 / weightb=1 / open_gop=0 / weightp=2 / keyint=50 / keyint_min=26 / scenecut=0 / intra_refresh=0 / rc_lookahead=40 / rc=2pass / mbtree=1 / bitrate=5120 / ratetol=1.0 / qcomp=0.60 / qpmin=0 / qpmax=69 / qpstep=4 / cplxblur=20.0 / qblur=0.5 / vbv_maxrate=7680 / vbv_bufsize=20480 / nal_hrd=none / filler=0 / ip_ratio=1.40 / aq=1:1.00
Default : Yes
Forced : No

Audio #1
ID : 2
Format : AC-3
Format/Info : Audio Coding 3
Commercial name : Dolby Digital
Codec ID : A_AC3
Duration : 1 h 34 min
Bit rate mode : Constant
Bit rate : 448 kb/s
Channel(s) : 6 channels
Channel layout : L R C LFE Ls Rs
Sampling rate : 48.0 kHz
Frame rate : 31.250 FPS (1536 SPF)
Bit depth : 16 bits
Compression mode : Lossy
Stream size : 302 MiB (7%)
Title : DUB
Language : Russian
Service kind : Complete Main
Default : Yes
Forced : No

Audio #2
ID : 3
Format : AC-3
Format/Info : Audio Coding 3
Commercial name : Dolby Digital
Codec ID : A_AC3
Duration : 1 h 34 min
Bit rate mode : Constant
Bit rate : 448 kb/s
Channel(s) : 6 channels
Channel layout : L R C LFE Ls Rs
Sampling rate : 48.0 kHz
Frame rate : 31.250 FPS (1536 SPF)
Bit depth : 16 bits
Compression mode : Lossy
Stream size : 302 MiB (7%)
Title : MVO Киномания
Language : Russian
Service kind : Complete Main
Default : No
Forced : No

Audio #3
ID : 4
Format : AC-3
Format/Info : Audio Coding 3
Commercial name : Dolby Digital
Codec ID : A_AC3
Duration : 1 h 34 min
Bit rate mode : Constant
Bit rate : 448 kb/s
Channel(s) : 6 channels
Channel layout : L R C LFE Ls Rs
Sampling rate : 48.0 kHz
Frame rate : 31.250 FPS (1536 SPF)
Bit depth : 16 bits
Compression mode : Lossy
Stream size : 302 MiB (7%)
Title : AVO Немахов
Language : Russian
Service kind : Complete Main
Default : No
Forced : No

Audio #4
ID : 5
Format : AC-3
Format/Info : Audio Coding 3
Commercial name : Dolby Digital
Codec ID : A_AC3
Duration : 1 h 34 min
Bit rate mode : Constant
Bit rate : 448 kb/s
Channel(s) : 6 channels
Channel layout : L R C LFE Ls Rs
Sampling rate : 48.0 kHz
Frame rate : 31.250 FPS (1536 SPF)
Bit depth : 16 bits
Compression mode : Lossy
Stream size : 302 MiB (7%)
Language : English
Service kind : Complete Main
Default : No
Forced : No

Text #1
ID : 6
Format : UTF-8
Codec ID : S_TEXT/UTF8
Codec ID/Info : UTF-8 Plain Text
Duration : 1 h 10 min
Bit rate : 0 b/s
Count of elements : 12
Stream size : 414 Bytes (0%)
Title : forced
Language : Russian
Default : Yes
Forced : No

Text #2
ID : 7
Format : UTF-8
Codec ID : S_TEXT/UTF8
Codec ID/Info : UTF-8 Plain Text
Duration : 1 h 29 min
Bit rate : 62 b/s
Count of elements : 647
Stream size : 41.1 KiB (0%)
Title : full
Language : Russian
Default : No
Forced : No

Text #3
ID : 8
Format : UTF-8
Codec ID : S_TEXT/UTF8
Codec ID/Info : UTF-8 Plain Text
Duration : 1 h 26 min
Bit rate : 40 b/s
Count of elements : 635
Stream size : 25.5 KiB (0%)
Language : English
Default : No
Forced : No
Примечание & Сравнения:
Open Matte-версия фильма имеет большее наполнение кадра по сравнению с Blu-ray.



Скриншоты
 

Вложения

  • 12 KB Просмотры: 0
    Личеров 0
    Сидеров 0
    Файлов 1
    Объем 4,4 GB

Привет!

Мы группа людей которые решили помочь другим в решении их проблем, а так же пользователям с поиском самых свежих и качественных инфопродуктов. За 4 с небольшим месяца мы создали этот форум на который заходят ежедневно тысячи человек и посещаемость постоянно растёт. Мы создали панель лицензирования для защиты PHP скриптов от воровства и SEO панель для мониторинга наших сайтов и выбора верной стратегии их развития. Мы надеемся что то что мы создали пригодится Вам и возможно Вы поможете нам развиваться и совершенствоваться вместе с Вами.

Статистика форума

Темы
406.640
Сообщения
465.115
Пользователи
84.565
Новый пользователь
sergesti

Приложения форума для iOS и Android


У ркн там нет власти ;)
Приватные разговоры
Помощь Пользователи
    Вы не присоединились ни к одной комнате.