За последнюю неделю опубликовано 34 новых материалов.
Инструкция новичку Путеводитель по форуму Прокси для Telegram Показать подсказки , это бомба!

Скачать Хэппи-энд (2020) WEB-DL 1080p | iTunes бесплатно через торрент

  • Поучаствуй (в качестве покупателя) в любых пяти совместных покупках (кроме завершённых и "Моментальных") и получи группу "Новичок" навсегда -> ссылка на раздел
  • Получай до 480 рублей за каждого приглашенного пользователя!
    представляем Вам очередное расширение партнерской программы, подробности описаны тут -> ссылка
  • 90% материалов доступно к скачиванию после простой регистрации!
    Если же ты хочешь скачивать материалы без требования оставлять отзывы то получи группу "Новичок", 10 способов повышения описаны тут -> ссылка
  • К сожалению количество битых ссылок растет и мы уже не можем их оперативно восстанавливать поэтому просим помощи у каждого нашего пользователя.
    С сегодняшнего дня, за каждую восстановленную ссылку мы заплатим Вам.
    Подробнее тут -> ссылка
  • Перенесем твои заслуги с другого ресурса!
    Мы понимаем как сложно прокачивать аккаунты на форумах, вроде раскачал аккаунт, а тут появляется ресурс в 100 раз круче но тоже с системой прокачки и снова качать аккаунт...
    Предлагаем вам перенести Ваши заслуги на другом подобном ресурсе к нам.
    Подробности описаны тут -> ссылка
  • Вы можете получать по 2.5% с каждой покупки и продажи на маркете! Подробности в теме Партнёрская программа
Если Вы не хотите скачивать, Вы всегда можетепосмотретьонлайн, просто нажмите кнопку ниже :

Открыть плеер

Torrent_Bot

Торрент-Бот
Бот форума
4 Окт 2016
93
160
20



Информация о фильме
Название: Хэппи-энд
Год выхода: 2020
Жанр: комедия
Режиссер: Евгений Шелякин
В ролях: Михаил Гомиашвили, Евгения Дмитриева, Владимир Мишуков, Чарай Муэнпрайун, Роза Хаируллина, Евгений Сангаджиев, Алина Астровская, Полина Пушкарук, Анастасия Сомова, Патрида Пьекеу

О фильме:
Загадочный мужчина приходит в себя на пляже в Таиланде. Он не помнит ни своего имени, ни причины, по которой оказался так далеко от дома. Говорит он только по-русски и отличается крайне скверным характером, однако быстро осваивается на новом месте, налаживает связи и даже организует авантюрный бизнес. И вроде все в его жизни снова благополучно, но один вопрос остается неотвеченным: для чего же он все-таки прилетел на другой конец света?



Страна: Россия, Таиланд
Студия: Вита Актива, 2Д Целлулоид
Продолжительность: 01:40:21
Перевод: Не требуется | iTunes

Файл
Формат: MKV
Качество: WEB-DL 1080p
Видео: AVC/H.264, 1920x804, 4792 Kbps
Аудио: АС3, 6 ch, 48 kHz, 384 Kbps | Русский
Субтитры: Нет
Релиз от

MediaInfo:
Общее
Формат : Matroska
Версия формата : Version 4
Размер файла : 3,63 Гбайт
Продолжительность : 1 ч. 40 м.
Общий поток : 5177 Кбит/сек
Дата кодирования : UTC 2020-08-26 20:17:19
Программа кодирования : mkvmerge v8.3.0 ('Over the Horizon') 64bit
Библиотека кодирования : libebml v1.3.1 + libmatroska v1.4.2

Видео
Идентификатор : 1
Формат : AVC
Формат/Информация : Advanced Video Codec
Профиль формата : [email protected]
Настройки формата : CABAC / 5 Ref Frames
Параметр CABAC формата : Да
Параметр RefFrames формата : 5 кадров
Идентификатор кодека : V_MPEG4/ISO/AVC
Продолжительность : 1 ч. 40 м.
Битрейт : 4792 Кбит/сек
Ширина : 1920 пикселей
Высота : 804 пикселя
Соотношение сторон : 2,40:1
Режим частоты кадров : Постоянный
Частота кадров : 24,000 кадра/сек
Цветовое пространство : YUV
Субдискретизация насыщенности : 4:2:0
Битовая глубина : 8 бит
Тип развёртки : Прогрессивная
Бит/(Пиксели*Кадры) : 0.129
Размер потока : 3,36 Гбайт (93%)
Язык : English
Default : Да
Forced : Нет
Цветовой диапазон : Limited
Основные цвета : BT.709
Характеристики трансфера : BT.709
Коэффициенты матрицы : BT.709

Аудио
Идентификатор : 2
Формат : AC-3
Формат/Информация : Audio Coding 3
Коммерческое название : Dolby Digital
Идентификатор кодека : A_AC3
Продолжительность : 1 ч. 40 м.
Вид битрейта : Постоянный
Битрейт : 384 Кбит/сек
Каналы : 6 каналов
ChannelLayout : L R C LFE Ls Rs
Частота : 48,0 КГц
Частота кадров : 31,250 кадров/сек (1536 SPF)
Битовая глубина : 16 бит
Метод сжатия : С потерями
Задержка видео : -42 мс.
Размер потока : 276 Мбайт (7%)
Заголовок : iTunes
Язык : Russian
ServiceKind : Complete Main
Default : Да
Forced : Нет

Меню
00:00:00.000 : en:Глава 1
00:06:08.493 : en:Глава 2
00:12:30.124 : en:Глава 3
00:21:16.316 : en:Глава 4
00:31:06.698 : en:Глава 5
00:37:10.019 : en:Глава 6
00:44:58.320 : en:Глава 7
00:49:52.989 : en:Глава 8
00:57:14.347 : en:Глава 9
01:03:18.210 : en:Глава 10
01:11:57.062 : en:Глава 11
01:19:38.565 : en:Глава 12
01:27:46.010 : en:Глава 13
01:32:55.110 : en:Глава 14
Скриншоты
 

Вложения

  • 19,1 KB Просмотры: 0
    Личеров 0
    Сидеров 0
    Файлов 1
    Объем 3,6 GB

Привет!

Мы группа людей которые решили помочь другим в решении их проблем, а так же пользователям с поиском самых свежих и качественных инфопродуктов. За 4 с небольшим месяца мы создали этот форум на который заходят ежедневно тысячи человек и посещаемость постоянно растёт. Мы создали панель лицензирования для защиты PHP скриптов от воровства и SEO панель для мониторинга наших сайтов и выбора верной стратегии их развития. Мы надеемся что то что мы создали пригодится Вам и возможно Вы поможете нам развиваться и совершенствоваться вместе с Вами.

Статистика форума

Темы
406.601
Сообщения
464.985
Пользователи
84.248
Новый пользователь
kkkkkkkrrrimmmh

Приложения форума для iOS и Android


У ркн там нет власти ;)
Приватные разговоры
Помощь Пользователи
    Вы не присоединились ни к одной комнате.