За последнюю неделю опубликовано 98 новых материалов.
Инструкция новичку Путеводитель по форуму Прокси для Telegram Показать подсказки , это бомба!

Скачать Хармагеддон / Harmagedon (1983) BDRip 1080p от SDIncorporation | MC Entertainment бесплатно через торрент

  • Поучаствуй (в качестве покупателя) в любых пяти совместных покупках (кроме завершённых и "Моментальных") и получи группу "Новичок" навсегда -> ссылка на раздел
  • Получай до 480 рублей за каждого приглашенного пользователя!
    представляем Вам очередное расширение партнерской программы, подробности описаны тут -> ссылка
  • 90% материалов доступно к скачиванию после простой регистрации!
    Если же ты хочешь скачивать материалы без требования оставлять отзывы то получи группу "Новичок", 10 способов повышения описаны тут -> ссылка
  • К сожалению количество битых ссылок растет и мы уже не можем их оперативно восстанавливать поэтому просим помощи у каждого нашего пользователя.
    С сегодняшнего дня, за каждую восстановленную ссылку мы заплатим Вам.
    Подробнее тут -> ссылка
  • Перенесем твои заслуги с другого ресурса!
    Мы понимаем как сложно прокачивать аккаунты на форумах, вроде раскачал аккаунт, а тут появляется ресурс в 100 раз круче но тоже с системой прокачки и снова качать аккаунт...
    Предлагаем вам перенести Ваши заслуги на другом подобном ресурсе к нам.
    Подробности описаны тут -> ссылка
  • Вы можете получать по 2.5% с каждой покупки и продажи на маркете! Подробности в теме Партнёрская программа

Torrent_Bot

Торрент-Бот
Бот форума
4 Окт 2016
79
194
20
Хармагеддон / Harmagedon (1983) BDRip [1080p] (Original Color) от SDIncorporation | MC Entertainment



Информация о фильме
Русское название: Хармагеддон
Оригинальное название: Harmagedon
Страна: Япония
Студия: Madhouse

Год выпуска: 1983
Жанр:Приключения, Фантастика
Перевод: Профессиональный многоголосый закадровый
Автор перевода: MC Entertainment
Режиссер: Ринтаро
Работа над релизом:Nod33Eset(retvil)
StreetDespair
Jonny_NAT
69SexyMan
Исходник: BluRay 2016 Год

О фильме:
Задолго до начала времен, когда Солнечная система была лишь облаком межзвездной пыли среди ледяного безмолвия хаоса, Великий Генма, чудовищное воплощение вселенского зла, вел яростную битву против всего сущего, поклявшись превратить космос в мертвое Ничто. Миллиарды лет, порабощая тела невинных и подчиняя себе стихии, бесформенный ужас пожирал галактики и созвездия, и теперь на его пути стоит хрупкая и одинокая планета Земля, чья единственная надежда - горстка загадочных сверхлюдей. Эти бесстрашные и мудрые воины способны одним усилием воли воздействовать на предметы с сокрушительной силой, и скоро их ряды пополнят новички, еще не подозревающие о своих способностях - прекрасная и грозная трансильванская принцесса Луна и простой японский школьник Джо. Когда Нью-Йорк будет лежать в руинах, а Токио превратится в песчаную пустыню, они, познав всё могущество своих удивительных сил, вместе с древним боевым роботом Вегой и собратьями воинами выйдут на решающую битву с Великим Генмой.

e2ecd2cc2c8abe690d8ae1a223e24eae.gif6e18acbac1f454f0d14d8709e5c613d8.gif
Продолжительность: 02:11:00
Качество видео: BDRip-1080p (Original Color)
Видеокодек: AVC|H.264
Формат: MKV
Битрейт видео: ~15000 Kbps
Размер кадра: 2008x1080
Аудиокодек: AC3
Битрейт аудио: 640 kbps
Аудио #1: Русский (48 kHz, AC3 Dolby Digital, 6 channels, ~640 kbps) — Профессиональный многоголосый закадровый [MC Entertainment]
Аудио #2: Японский (48 kHz, AC3 Dolby Digital, 6 channels, ~640 kbps) — Оригинальный [Japanese]
Субтитры #1: Russian Subtitles
Субтитры #2: English Subtitles

MI:
General
Unique ID : 214217092816640851803401800049735627344 (0xA128B61C0CE5C3AB9798F08C4FC5F250)
Complete name : Harmagedon.BDRip.1080p.Original.Color.Rus.Jap.SDIncorporation.mkv
Format : Matroska
Format version : Version 4 / Version 2
File size : 13.9 GiB
Duration : 2 h 11 min
Overall bit rate : 15.2 Mb/s
Movie name : Harmagedon [BDRip-1080p] (Original Color) © SDIncorporation
Encoded date : UTC 2017-01-16 17:08:55
Writing application : mkvmerge v9.7.0 ('Numbers') 64bit
Writing library : libebml v1.3.4 + libmatroska v1.4.5
Cover : Yes
Attachments : cover.png

Video
ID : 1
Format : AVC
Format/Info : Advanced Video Codec
Format profile : [email protected]
Format settings, CABAC : Yes
Format settings, ReFrames : 1 frame
Codec ID : V_MPEG4/ISO/AVC
Duration : 2 h 11 min
Bit rate : 13.9 Mb/s
Width : 2 008 pixels
Height : 1 080 pixels
Display aspect ratio : 1.85:1
Frame rate mode : Constant
Frame rate : 23.976 FPS
Original frame rate : 30.000 FPS
Color space : YUV
Chroma subsampling : 4:2:0
Bit depth : 8 bits
Scan type : Progressive
Bits/(Pixel*Frame) : 0.267
Stream size : 12.7 GiB (92%)
Language : English
Default : Yes
Forced : No

Audio #1
ID : 2
Format : AC-3
Format/Info : Audio Coding 3
Mode extension : CM (complete main)
Format settings, Endianness : Big
Codec ID : A_AC3
Duration : 2 h 11 min
Bit rate mode : Constant
Bit rate : 640 kb/s
Channel(s) : 6 channels
Channel positions : Front: L C R, Side: L R, LFE
Sampling rate : 48.0 kHz
Frame rate : 31.250 FPS (1536 spf)
Bit depth : 16 bits
Compression mode : Lossy
Stream size : 600 MiB (4%)
Title : Russian (MC Entertainment)
Language : Russian
Default : Yes
Forced : No

Audio #2
ID : 3
Format : AC-3
Format/Info : Audio Coding 3
Mode extension : CM (complete main)
Format settings, Endianness : Big
Codec ID : A_AC3
Duration : 2 h 11 min
Bit rate mode : Constant
Bit rate : 640 kb/s
Channel(s) : 6 channels
Channel positions : Front: L C R, Side: L R, LFE
Sampling rate : 48.0 kHz
Frame rate : 31.250 FPS (1536 spf)
Bit depth : 16 bits
Compression mode : Lossy
Stream size : 600 MiB (4%)
Title : Japanese
Language : Japanese
Default : No
Forced : No

Text #1
ID : 4
Format : ASS
Codec ID : S_TEXT/ASS
Codec ID/Info : Advanced Sub Station Alpha
Duration : 2 h 7 min
Bit rate : 68 b/s
Count of elements : 765
Compression mode : Lossless
Stream size : 63.6 KiB (0%)
Title : Russian Subtitles
Language : Russian
Default : Yes
Forced : No

Text #2
ID : 5
Format : ASS
Codec ID : S_TEXT/ASS
Codec ID/Info : Advanced Sub Station Alpha
Duration : 2 h 7 min
Bit rate : 40 b/s
Count of elements : 773
Compression mode : Lossless
Stream size : 37.6 KiB (0%)
Title : English Subtitles
Language : English
Default : No
Forced : No
7a20cce062f5b0d85b76c78643789f5b.png5981169e0abdf8c077f0549d411e0a76.pngb4c9746dfecf9b1112976aec32958938.pngea7fe151aa7e056c560cf4de5672b466.png52e126ac12627b5eca4d68d24a2c1c5f.png2736ce0d4ff5643662d68576db2c1619.pngc125e452ebd4cfe5c5a836043549d82b.png086d587fdfeaee682878c0c0d470a465.png89667f924e113910894b01f17f6a1f41.png719a287decbe243c405fc81b0bb85889.png0d52937297528321db89093049ca012d.pngb007af100016239ecec9ec90e525b4a6.pngb763a07a0199a38f47252e20984f6607.pngc35eb4be7f180746357080b2ce6ed26a.png41f0db4d795f7970b8e5e65a7ad678a2.png6de760d9210898ddbd07a85acd9417f2.png

Время раздачи: С 8:00 до 22:00

Релиз от: ©SDIncorporation
 

Вложения

Привет!

Мы группа людей которые решили помочь другим в решении их проблем, а так же пользователям с поиском самых свежих и качественных инфопродуктов. За 4 с небольшим месяца мы создали этот форум на который заходят ежедневно тысячи человек и посещаемость постоянно растёт. Мы создали панель лицензирования для защиты PHP скриптов от воровства и SEO панель для мониторинга наших сайтов и выбора верной стратегии их развития. Мы надеемся что то что мы создали пригодится Вам и возможно Вы поможете нам развиваться и совершенствоваться вместе с Вами.

Статистика форума

Темы
414.370
Сообщения
475.396
Пользователи
96.561
Новый пользователь
starushka

Приложения форума для iOS и Android


У ркн там нет власти ;)
Приватные разговоры
Помощь Пользователи
    Вы не присоединились ни к одной комнате.