За последнюю неделю опубликовано 29 новых материалов.
Инструкция новичку Путеводитель по форуму Прокси для Telegram Показать подсказки , это бомба!

Скачать Хан Соло: Звёздные Войны. Истории / Solo: A Star Wars Story (2018) BDRip 720p от k.e.n & MegaPeer | Локализованная версия | Лицензия бесплатно через торрент

  • Поучаствуй (в качестве покупателя) в любых пяти совместных покупках (кроме завершённых и "Моментальных") и получи группу "Новичок" навсегда -> ссылка на раздел
  • Получай до 480 рублей за каждого приглашенного пользователя!
    представляем Вам очередное расширение партнерской программы, подробности описаны тут -> ссылка
  • 90% материалов доступно к скачиванию после простой регистрации!
    Если же ты хочешь скачивать материалы без требования оставлять отзывы то получи группу "Новичок", 10 способов повышения описаны тут -> ссылка
  • К сожалению количество битых ссылок растет и мы уже не можем их оперативно восстанавливать поэтому просим помощи у каждого нашего пользователя.
    С сегодняшнего дня, за каждую восстановленную ссылку мы заплатим Вам.
    Подробнее тут -> ссылка
  • Перенесем твои заслуги с другого ресурса!
    Мы понимаем как сложно прокачивать аккаунты на форумах, вроде раскачал аккаунт, а тут появляется ресурс в 100 раз круче но тоже с системой прокачки и снова качать аккаунт...
    Предлагаем вам перенести Ваши заслуги на другом подобном ресурсе к нам.
    Подробности описаны тут -> ссылка
  • Вы можете получать по 2.5% с каждой покупки и продажи на маркете! Подробности в теме Партнёрская программа
Если Вы не хотите скачивать, Вы всегда можетепосмотретьонлайн, просто нажмите кнопку ниже :

Открыть плеер

Torrent_Bot

Торрент-Бот
Бот форума
4 Окт 2016
93
155
20
Информация о фильме
Название: Хан Соло: Звёздные Войны. Истории
Оригинальное название: Solo: A Star Wars Story
Год выпуска: 2018
Жанр: Фантастика, фэнтези, боевик, приключения
Режиссер: Рон Ховард
В ролях: Олден Эренрайк, Йонас Суотамо, Вуди Харрельсон, Эмилия Кларк, Дональд Гловер, Тэнди Ньютон, Фиби Уоллер-Бридж, Пол Беттани, Джон Фавро, Линда Хант

О фильме:
Время подняться на борт Тысячелетнего Сокола и отправиться в путешествие по далёкой, далёкой галактике в компании самого обожаемого негодяя звёздных систем! Провернув целую серию дерзких авантюр в мрачном и опасном криминальном мире, Хан Соло (Олден Эренрайк) встречает могучего Чубакку (Йонас Суотамо), своего будущего второго пилота, и пресловутого азартного игрока Лэндо Калриссиана (Дональд Гловер). Их совместное приключение положит начало истории самого маловероятного героя вселенной «Звёздных войн».

Новое ответвление космической саги посвящёно становлению всеми любимого Хана Соло в качестве контрабандиста, вора и негодяя, до того, как Люк Скайуокер и Оби-Ван Кеноби встретили его в порту Мос Эйсли. Сюжет ленты сосредоточится на молодых годах Хана (в промежутке, когда ему было от 18 до 24 лет), а также расскажет о том, как он получил свой знаменитый «Тысячелетний Сокол», как впервые встретился с Чубаккой и при каких обстоятельствах взял себе имя «Хан Соло».



Страна: США
Студия: Pantelion Films, 3Pas Studios, Metro-Goldwyn-Mayer (MGM)
Продолжительность: 02:14:46
Перевод: Дублированный | Лицензия BD EUR

Файл
Формат: MKV
Качество: BDRip 720p | Blu-Ray 1080p |
Видео: AVC, 1280x536 (2.40:1), 23.976 fps, 4 834 Kbps (0.294 bit/pixel)
Аудио #1: AC-3, 48.0 KHz, 6 ch, 640 Kbps, CBR (Russian)
Аудио #2: AC-3, 48.0 KHz, 6 ch, 640 Kbps, CBR (English)
Субтитры: Russian, English

Скриншоты:



Релиз: &

Скриншоты
MI
Полное имя : D:ФИЛЬМЫХан Соло. Звёздные войны. Истории.2018. (Эренрайк, В.Харрельсон).mkv
Формат : Matroska
Версия формата : Version 2
Размер файла : 5,75 Гбайт
Продолжительность : 2 ч. 14 м.
Общий поток : 6111 Кбит/сек
Название фильма : Solo: A Star Wars Story.2018 BDRip 720p от k.e.n & MegaPeer
Дата кодирования : UTC 2018-09-20 20:14:17
Программа кодирования : mkvmerge v5.3.0 ('I could have danced') built on Feb 9 2012 10:38:07
Библиотека кодирования : libebml v1.2.3 + libmatroska v1.3.0
Attachments : poster_4.jpg

Видео
Идентификатор : 1
Формат : AVC
Формат/Информация : Advanced Video Codec
Профиль формата : High@L4.1
Параметр CABAC формата : Да
Параметр ReFrames формата : 12 кадров
Идентификатор кодека : V_MPEG4/ISO/AVC
Продолжительность : 2 ч. 14 м.
Битрейт : 4834 Кбит/сек
Ширина : 1280 пикселей
Высота : 536 пикселей
Соотношение сторон : 2,40:1
Режим частоты кадров : Постоянный
Частота кадров : 23,976 (24000/1001) кадра/сек
Цветовое пространство : YUV
Субдискретизация насыщенности : 4:2:0
Битовая глубина : 8 бит
Тип развёртки : Прогрессивная
Бит/(Пиксели*Кадры) : 0.294
Размер потока : 4,43 Гбайт (77%)
Библиотека кодирования : x264 core 146 r2538 121396c
Настройки программы : cabac=1 / ref=12 / deblock=1:-3:-3 / analyse=0x3:0x133 / me=umh / subme=11 / psy=1 / psy_rd=1.00:0.10 / mixed_ref=1 / me_range=32 / chroma_me=1 / trellis=2 / 8x8dct=1 / cqm=0 / deadzone=21,11 / fast_pskip=0 / chroma_qp_offset=-3 / threads=12 / lookahead_threads=2 / sliced_threads=0 / nr=0 / decimate=0 / interlaced=0 / bluray_compat=0 / constrained_intra=0 / bframes=12 / b_pyramid=2 / b_adapt=2 / b_bias=0 / direct=3 / weightb=1 / open_gop=0 / weightp=2 / keyint=240 / keyint_min=23 / scenecut=40 / intra_refresh=0 / rc=2pass / mbtree=0 / bitrate=4834 / ratetol=1.0 / qcomp=0.60 / qpmin=0 / qpmax=69 / qpstep=4 / cplxblur=20.0 / qblur=0.5 / ip_ratio=1.40 / pb_ratio=1.30 / aq=3:0.70
Язык : English
Default : Да
Forced : Нет

Аудио #1
Идентификатор : 2
Формат : AC-3
Формат/Информация : Audio Coding 3
Расширение режима : CM (complete main)
Параметр Endianness формата : Big
Идентификатор кодека : A_AC3
Продолжительность : 2 ч. 14 м.
Вид битрейта : Постоянный
Битрейт : 640 Кбит/сек
Каналы : 6 каналов
Расположение каналов : Front: L C R, Side: L R, LFE
Частота : 48,0 КГц
Частота кадров : 31,250 кадров/сек (1536 spf)
Битовая глубина : 16 бит
Метод сжатия : С потерями
Размер потока : 617 Мбайт (10%)
Язык : Russian
Default : Да
Forced : Нет

Аудио #2
Идентификатор : 3
Формат : AC-3
Формат/Информация : Audio Coding 3
Расширение режима : CM (complete main)
Параметр Endianness формата : Big
Идентификатор кодека : A_AC3
Продолжительность : 2 ч. 14 м.
Вид битрейта : Постоянный
Битрейт : 640 Кбит/сек
Каналы : 6 каналов
Расположение каналов : Front: L C R, Side: L R, LFE
Частота : 48,0 КГц
Частота кадров : 31,250 кадров/сек (1536 spf)
Битовая глубина : 16 бит
Метод сжатия : С потерями
Размер потока : 617 Мбайт (10%)
Заголовок : Оригинал
Язык : English
Default : Нет
Forced : Нет

Текст #1
Идентификатор : 4
Формат : UTF-8
Идентификатор кодека : S_TEXT/UTF8
Идентификатор кодека/Информация : UTF-8 Plain Text
Заголовок : Forced
Язык : Russian
Default : Да
Forced : Нет

Текст #2
Идентификатор : 5
Формат : UTF-8
Идентификатор кодека : S_TEXT/UTF8
Идентификатор кодека/Информация : UTF-8 Plain Text
Заголовок : full
Язык : Russian
Default : Нет
Forced : Нет

Текст #3
Идентификатор : 6
Формат : UTF-8
Идентификатор кодека : S_TEXT/UTF8
Идентификатор кодека/Информация : UTF-8 Plain Text
Заголовок : full
Язык : English
Default : Нет
Forced : Нет

Меню
00:00:00.000 : en:Chapter 01
00:00:53.845 : en:Chapter 02
00:02:10.213 : en:Chapter 03
00:03:53.149 : en:Chapter 04
00:06:00.485 : en:Chapter 05
00:09:27.566 : en:Chapter 06
00:13:16.045 : en:Chapter 07
00:14:14.019 : en:Chapter 08
00:16:12.262 : en:Chapter 09
00:19:45.100 : en:Chapter 10
00:22:43.820 : en:Chapter 11
00:24:37.267 : en:Chapter 12
00:27:00.035 : en:Chapter 13
00:30:02.926 : en:Chapter 14
00:32:54.681 : en:Chapter 15
00:39:09.764 : en:Chapter 16
00:41:59.225 : en:Chapter 17
00:43:20.180 : en:Chapter 18
00:44:32.127 : en:Chapter 19
00:48:03.755 : en:Chapter 20
00:51:58.323 : en:Chapter 21
00:53:17.527 : en:Chapter 22
00:57:23.523 : en:Chapter 23
01:00:16.779 : en:Chapter 24
01:02:40.882 : en:Chapter 25
01:04:51.262 : en:Chapter 26
01:05:29.508 : en:Chapter 27
01:07:12.027 : en:Chapter 28
01:08:05.915 : en:Chapter 29
01:10:00.112 : en:Chapter 30
01:12:44.193 : en:Chapter 31
01:14:40.851 : en:Chapter 32
01:18:30.872 : en:Chapter 33
01:23:15.740 : en:Chapter 34
01:26:32.645 : en:Chapter 35
01:30:33.136 : en:Chapter 36
01:35:19.672 : en:Chapter 37
01:37:04.860 : en:Chapter 38
01:38:52.801 : en:Chapter 39
01:41:18.530 : en:Chapter 40
01:43:02.676 : en:Chapter 41
01:45:27.821 : en:Chapter 42
01:46:32.177 : en:Chapter 43
01:49:45.996 : en:Chapter 44
01:53:33.890 : en:Chapter 45
01:57:13.901 : en:Chapter 46
01:58:55.127 : en:Chapter 47
02:01:34.829 : en:Chapter 48
02:03:20.893 : en:Chapter 49
02:06:09.353 : en:Chapter 50
02:14:46.453 : en:Chapter 51
 

Вложения

  • 15,4 KB Просмотры: 1
    Личеров 0
    Сидеров 0
    Файлов 1
    Объем 5,8 GB

Привет!

Мы группа людей которые решили помочь другим в решении их проблем, а так же пользователям с поиском самых свежих и качественных инфопродуктов. За 4 с небольшим месяца мы создали этот форум на который заходят ежедневно тысячи человек и посещаемость постоянно растёт. Мы создали панель лицензирования для защиты PHP скриптов от воровства и SEO панель для мониторинга наших сайтов и выбора верной стратегии их развития. Мы надеемся что то что мы создали пригодится Вам и возможно Вы поможете нам развиваться и совершенствоваться вместе с Вами.

Статистика форума

Темы
406.535
Сообщения
464.632
Пользователи
83.207
Новый пользователь
kingartur9719

Приложения форума для iOS и Android


У ркн там нет власти ;)
Приватные разговоры
Помощь Пользователи
    Вы не присоединились ни к одной комнате.