За последнюю неделю опубликовано 60 новых материалов.
Инструкция новичку Путеводитель по форуму Прокси для Telegram Показать подсказки , это бомба!

Скачать Хад / Hud (1963) BDRip 1080p от msltel | P | DEU Transfer бесплатно через торрент

  • Поучаствуй (в качестве покупателя) в любых пяти совместных покупках (кроме завершённых и "Моментальных") и получи группу "Новичок" навсегда -> ссылка на раздел
  • Получай до 480 рублей за каждого приглашенного пользователя!
    представляем Вам очередное расширение партнерской программы, подробности описаны тут -> ссылка
  • 90% материалов доступно к скачиванию после простой регистрации!
    Если же ты хочешь скачивать материалы без требования оставлять отзывы то получи группу "Новичок", 10 способов повышения описаны тут -> ссылка
  • К сожалению количество битых ссылок растет и мы уже не можем их оперативно восстанавливать поэтому просим помощи у каждого нашего пользователя.
    С сегодняшнего дня, за каждую восстановленную ссылку мы заплатим Вам.
    Подробнее тут -> ссылка
  • Перенесем твои заслуги с другого ресурса!
    Мы понимаем как сложно прокачивать аккаунты на форумах, вроде раскачал аккаунт, а тут появляется ресурс в 100 раз круче но тоже с системой прокачки и снова качать аккаунт...
    Предлагаем вам перенести Ваши заслуги на другом подобном ресурсе к нам.
    Подробности описаны тут -> ссылка
  • Вы можете получать по 2.5% с каждой покупки и продажи на маркете! Подробности в теме Партнёрская программа
Если Вы не хотите скачивать, Вы всегда можетепосмотретьонлайн, просто нажмите кнопку ниже :

Открыть плеер

Torrent_Bot

Торрент-Бот
Бот форума
4 Окт 2016
92
163
20



Название: Хад
Оригинальное название: Hud
Год выпуска: 1963
Страна: США
Жанр: драма, вестерн
Продолжительность: 01:51:40
Перевод: профессиональный многоголосый
Режиссер: Мартин Ритт
В ролях: Пол Ньюман, Мелвин Дуглас, Патриция Нил, Брендон Де Уайлд, Уит Бисселл, Крэхан Дентон, Джон Эшли, Вэл Эйвери, Джордж Петри, Курт Конуэй, Шелдон Эллман, Питт Херберт, Карл Лоу, Роберт Хинкль, Дон Кеннеди, Шэрин Хилльер, Ивет Викерз, Чарли Бриггс, Питер Брукс, Элмер Уэйн Браун, Нино Кандидо, Дэннис Хедлунд

О фильме: Действие происходит на техасском ранчо семьи Бэннон и в соседнем городке. Хад Бэннон — прожжённый гуляка и любитель женщин, который может каждый вечер кутить и встревать в потасовки, но при этом способен своим обаянием увлечь людей и повести за собой. Он живёт на ранчо со своим отцом Гомером, человеком твёрдых моральных убеждений, и 17-летним племянником Лонни. Гомер не любит сына за его цинизм и эгоизм, и тот платит ему той же монетой, откровенно ожидая смерти сурового родителя, чтобы вступить во владение землёй. В центре этого семейного конфликта оказывается юный Лонни, который должен сделать выбор между мудростью деда и легкомысленностью дяди...Фильм по роману Ларри Макмёртри «Всадник, проезжай» (Horseman, Pass By).



Качество: BDRip 1080p
Формат: MKV
Видео: MPEG-4 AVC, 11.3 Mбит/c, 1920x816, 23.976 кадр/c
Аудио 1: русский, AC3, 256 kbps, 2 ch, 48 kHz [закадровый многоголосый]
Аудио 2: английский, AC3, 448 kbps, 6 ch, 48 kHz [оригинал]
Субтитры: английские
Главы/чаптеры

MediaInfo
Общее
Уникальный идентификатор : 210187094461202665640857115341423146982 (0x9E208FD9A396B61B9A6C369EBAB077E6)
Полное имя : D:VideoХад.1963.DEU Transfer.BDRip 1080p msltel.mkv
Формат : Matroska
Версия формата : Version 4
Размер файла : 9,38 Гбайт
Продолжительность : 1 ч. 51 м.
Общий поток : 12,0 Мбит/сек
Название фильма : Rip msltel
Дата кодирования : UTC 2020-08-20 02:07:27
Программа кодирования : mkvmerge v8.2.0 ('World of Adventure') 64bit
Библиотека кодирования : libebml v1.3.1 + libmatroska v1.4.2

Видео
Идентификатор : 1
Формат : AVC
Формат/Информация : Advanced Video Codec
Профиль формата : [email protected]
Настройки формата : CABAC / 5 Ref Frames
Параметр CABAC формата : Да
Параметр RefFrames формата : 5 кадров
Идентификатор кодека : V_MPEG4/ISO/AVC
Продолжительность : 1 ч. 51 м.
Битрейт : 11,3 Мбит/сек
Ширина : 1 920 пикселей
Высота : 816 пикселей
Соотношение сторон : 2,35:1
Режим частоты кадров : Постоянный
Частота кадров : 23,976 (24000/1001) кадра/сек
Цветовое пространство : YUV
Субдискретизация насыщенности : 4:2:0
Битовая глубина : 8 бит
Тип развёртки : Прогрессивная
Бит/(Пиксели*Кадры) : 0.301
Размер потока : 8,83 Гбайт (94%)
Библиотека кодирования : x264 core 159 r2991 1771b55
Настройки программы : cabac=1 / ref=5 / deblock=1:-2:-2 / analyse=0x3:0x113 / me=umh / subme=11 / psy=1 / psy_rd=1.00:0.15 / mixed_ref=1 / me_range=32 / chroma_me=1 / trellis=2 / 8x8dct=1 / cqm=0 / deadzone=21,11 / fast_pskip=0 / chroma_qp_offset=-3 / threads=6 / lookahead_threads=1 / sliced_threads=0 / nr=0 / decimate=1 / interlaced=0 / bluray_compat=0 / constrained_intra=0 / bframes=8 / b_pyramid=2 / b_adapt=2 / b_bias=0 / direct=1 / weightb=1 / open_gop=0 / weightp=2 / keyint=230 / keyint_min=23 / scenecut=40 / intra_refresh=0 / rc_lookahead=40 / rc=crf / mbtree=1 / crf=17.4 / qcomp=0.60 / qpmin=0 / qpmax=69 / qpstep=4 / vbv_maxrate=50000 / vbv_bufsize=62500 / crf_max=0.0 / nal_hrd=none / filler=0 / ip_ratio=1.40 / aq=1:1.00
Язык : English
Default : Да
Forced : Нет

Аудио #1
Идентификатор : 2
Формат : AC-3
Формат/Информация : Audio Coding 3
Коммерческое название : Dolby Digital
Идентификатор кодека : A_AC3
Продолжительность : 1 ч. 51 м.
Вид битрейта : Постоянный
Битрейт : 256 Кбит/сек
Каналы : 2 канала
Channel layout : L R
Частота : 48,0 КГц
Частота кадров : 31,250 кадров/сек (1536 SPF)
Метод сжатия : С потерями
Размер потока : 204 Мбайт (2%)
Заголовок : MVO
Язык : Russian
Service kind : Complete Main
Default : Да
Forced : Нет

Аудио #2
Идентификатор : 3
Формат : AC-3
Формат/Информация : Audio Coding 3
Коммерческое название : Dolby Digital
Идентификатор кодека : A_AC3
Продолжительность : 1 ч. 51 м.
Вид битрейта : Постоянный
Битрейт : 448 Кбит/сек
Каналы : 6 каналов
Channel layout : L R C LFE Ls Rs
Частота : 48,0 КГц
Частота кадров : 31,250 кадров/сек (1536 SPF)
Метод сжатия : С потерями
Размер потока : 358 Мбайт (4%)
Заголовок : оригинал
Язык : English
Service kind : Complete Main
Default : Нет
Forced : Нет

Текст
Идентификатор : 4
Формат : UTF-8
Идентификатор кодека : S_TEXT/UTF8
Идентификатор кодека/Информация : UTF-8 Plain Text
Продолжительность : 1 ч. 50 м.
Битрейт : 63 бит/сек
Count of elements : 1710
Размер потока : 50,9 Кбайт (0%)
Заголовок : английские
Язык : English
Default : Нет
Forced : Нет

Меню
00:00:00.000 : en:Chapter 1
00:08:49.654 : en:Chapter 2
00:17:03.147 : en:Chapter 3
00:28:06.101 : en:Chapter 4
00:37:37.505 : en:Chapter 5
00:45:59.507 : en:Chapter 6
00:53:36.839 : en:Chapter 7
01:03:17.168 : en:Chapter 8
01:12:05.154 : en:Chapter 9
01:21:44.233 : en:Chapter 10
01:30:43.855 : en:Chapter 11
01:45:38.332 : en:Chapter 12
 

Вложения

  • 47,8 KB Просмотры: 0
    Личеров 0
    Сидеров 0
    Файлов 1
    Объем 9,4 GB

Привет!

Мы группа людей которые решили помочь другим в решении их проблем, а так же пользователям с поиском самых свежих и качественных инфопродуктов. За 4 с небольшим месяца мы создали этот форум на который заходят ежедневно тысячи человек и посещаемость постоянно растёт. Мы создали панель лицензирования для защиты PHP скриптов от воровства и SEO панель для мониторинга наших сайтов и выбора верной стратегии их развития. Мы надеемся что то что мы создали пригодится Вам и возможно Вы поможете нам развиваться и совершенствоваться вместе с Вами.

Статистика форума

Темы
406.696
Сообщения
465.156
Пользователи
84.764
Новый пользователь
prochorus

Приложения форума для iOS и Android


У ркн там нет власти ;)
Приватные разговоры
Помощь Пользователи
    Вы не присоединились ни к одной комнате.