За последнюю неделю опубликовано 50 новых материалов.
Инструкция новичку Путеводитель по форуму Прокси для Telegram Показать подсказки , это бомба!

Скачать Вздрюченные / Get Duked! / Boyz in the Wood (2019) WEB-DL 1080p | Sub бесплатно через торрент

  • Поучаствуй (в качестве покупателя) в любых пяти совместных покупках (кроме завершённых и "Моментальных") и получи группу "Новичок" навсегда -> ссылка на раздел
  • Получай до 480 рублей за каждого приглашенного пользователя!
    представляем Вам очередное расширение партнерской программы, подробности описаны тут -> ссылка
  • 90% материалов доступно к скачиванию после простой регистрации!
    Если же ты хочешь скачивать материалы без требования оставлять отзывы то получи группу "Новичок", 10 способов повышения описаны тут -> ссылка
  • К сожалению количество битых ссылок растет и мы уже не можем их оперативно восстанавливать поэтому просим помощи у каждого нашего пользователя.
    С сегодняшнего дня, за каждую восстановленную ссылку мы заплатим Вам.
    Подробнее тут -> ссылка
  • Перенесем твои заслуги с другого ресурса!
    Мы понимаем как сложно прокачивать аккаунты на форумах, вроде раскачал аккаунт, а тут появляется ресурс в 100 раз круче но тоже с системой прокачки и снова качать аккаунт...
    Предлагаем вам перенести Ваши заслуги на другом подобном ресурсе к нам.
    Подробности описаны тут -> ссылка
  • Вы можете получать по 2.5% с каждой покупки и продажи на маркете! Подробности в теме Партнёрская программа
Если Вы не хотите скачивать, Вы всегда можетепосмотретьонлайн, просто нажмите кнопку ниже :

Открыть плеер

Torrent_Bot

Торрент-Бот
Бот форума
4 Окт 2016
93
160
20



Информация о фильме
Название: Вздрюченные / Чуваки в лесу
Оригинальное название: Get Duked! / Boyz in the Wood
Год выхода: 2019
Жанр: ужасы, комедия
Режиссер: Ниниан Дофф
В ролях: Эдди Иззард, Кейт Дики, Джеймс Космо, Кевин Гатри, Джонатан Арис, Элис Лоу, Сэмюэл Боттомли, Вирадж Джунея, Райан Гордон, Льюис Гриббен

О фильме:
Закадычные друзья-раздолбаи Дин, Дункан и DJ Битрут отправляются в поход для перевоспитания и продуктивного, по мнению учителя, времяпрепровождения. Им нужно совершить двухдневный переход и выйти к назначенному месту, чтобы получить приз Герцога Эдинбургского. К их компашке присоединяется добропорядочный Иэн, который не привык пренебрегать правилами, но его товарищи по команде больше настроены на развлечения и полную свободу. Когда они понимают, что за ними по пятам следуют таинственные охотники, для которых они дичь, то поход превращается в беспощадную игру на выживание...



Страна: Великобритания
Студия: Highland Midgie, Material Pictures, Nowhere
Продолжительность: 01:26:37
Перевод: СУБТИТРЫ

Файл
Кодек: H.264
Качество: WEB-DL 1080p
Видео: AVC, 1920x800 (2.40:1), 23.976fps ~ 7085 Kbps
Звук: E-AC3, 48 KHz, 6 ch ~ 640 Kb/s (английский)
Субтитры: русские, английские + multi

MI:
Общее
Уникальный идентификатор : 245496465917327189764735844291404256210 (0xB8B0E645504A2F9BAE23AB9AD8B653D2)
Полное имя : J:wotBoyz.in.the.Wood.2019.1080p.AMZN.mkv
Формат : Matroska
Версия формата : Version 4
Размер файла : 4,68 Гбайт
Продолжительность : 1 ч. 26 м.
Общий поток : 7 731 Кбит/сек
Дата кодирования : UTC 2020-08-28 11:03:09
Программа кодирования : mkvmerge v7.7.0 ('Six Voices') 32bit built on Feb 28 2015 23:23:00
Библиотека кодирования : libebml v1.3.1 + libmatroska v1.4.2

Видео
Идентификатор : 1
Формат : AVC
Формат/Информация : Advanced Video Codec
Профиль формата : [email protected]
Настройки формата : CABAC / 4 Ref Frames
Параметр CABAC формата : Да
Параметр RefFrames формата : 4 кадра
Идентификатор кодека : V_MPEG4/ISO/AVC
Продолжительность : 1 ч. 26 м.
Вид битрейта : Постоянный
Битрейт : 7 085 Кбит/сек
Номинальный битрейт : 10 000 Кбит/сек
Ширина : 1 920 пикселей
Высота : 800 пикселей
Соотношение сторон : 2,40:1
Режим частоты кадров : Постоянный
Частота кадров : 23,976 (24000/1001) кадра/сек
Цветовое пространство : YUV
Субдискретизация насыщенности : 4:2:0
Битовая глубина : 8 бит
Тип развёртки : Прогрессивная
Бит/(Пиксели*Кадры) : 0.192
Размер потока : 4,29 Гбайт (92%)
Язык : English
Default : Да
Forced : Нет
Цветовой диапазон : Limited
Основные цвета : BT.709
Характеристики трансфера : BT.709
Коэффициенты матрицы : BT.709

Аудио
Идентификатор : 2
Формат : E-AC-3
Формат/Информация : Enhanced AC-3
Коммерческое название : Dolby Digital Plus
Идентификатор кодека : A_EAC3
Продолжительность : 1 ч. 26 м.
Вид битрейта : Постоянный
Битрейт : 640 Кбит/сек
Каналы : 6 каналов
Channel layout : L R C LFE Ls Rs
Частота : 48,0 КГц
Частота кадров : 31,250 кадров/сек (1536 SPF)
Метод сжатия : С потерями
Размер потока : 397 Мбайт (8%)
Заголовок : English
Язык : English
Service kind : Complete Main
Default : Да
Forced : Нет

Текст #1
Идентификатор : 3
Формат : UTF-8
Идентификатор кодека : S_TEXT/UTF8
Идентификатор кодека/Информация : UTF-8 Plain Text
Продолжительность : 1 ч. 25 м.
Битрейт : 95 бит/сек
Count of elements : 1287
Размер потока : 59,8 Кбайт (0%)
Заголовок : Russian
Язык : Russian
Default : Нет
Forced : Нет

Текст #2
Идентификатор : 4
Формат : UTF-8
Идентификатор кодека : S_TEXT/UTF8
Идентификатор кодека/Информация : UTF-8 Plain Text
Продолжительность : 1 ч. 25 м.
Битрейт : 84 бит/сек
Count of elements : 1628
Размер потока : 53,0 Кбайт (0%)
Заголовок : English
Язык : English
Default : Нет
Forced : Нет

Текст #3
Идентификатор : 5
Формат : UTF-8
Идентификатор кодека : S_TEXT/UTF8
Идентификатор кодека/Информация : UTF-8 Plain Text
Продолжительность : 1 ч. 26 м.
Битрейт : 96 бит/сек
Count of elements : 1848
Размер потока : 61,2 Кбайт (0%)
Заголовок : English [SDH]
Язык : English
Default : Нет
Forced : Нет

Текст #4
Идентификатор : 6
Формат : UTF-8
Идентификатор кодека : S_TEXT/UTF8
Идентификатор кодека/Информация : UTF-8 Plain Text
Продолжительность : 1 ч. 25 м.
Битрейт : 60 бит/сек
Count of elements : 1302
Размер потока : 38,0 Кбайт (0%)
Заголовок : European Spanish
Язык : Spanish
Default : Нет
Forced : Нет

Текст #5
Идентификатор : 7
Формат : UTF-8
Идентификатор кодека : S_TEXT/UTF8
Идентификатор кодека/Информация : UTF-8 Plain Text
Продолжительность : 1 ч. 25 м.
Битрейт : 64 бит/сек
Count of elements : 1300
Размер потока : 40,5 Кбайт (0%)
Заголовок : Spanish
Язык : Spanish
Default : Нет
Forced : Нет

Текст #6
Идентификатор : 8
Формат : UTF-8
Идентификатор кодека : S_TEXT/UTF8
Идентификатор кодека/Информация : UTF-8 Plain Text
Продолжительность : 1 ч. 25 м.
Битрейт : 59 бит/сек
Count of elements : 1290
Размер потока : 37,6 Кбайт (0%)
Заголовок : French
Язык : French
Default : Нет
Forced : Нет

Текст #7
Идентификатор : 9
Формат : UTF-8
Идентификатор кодека : S_TEXT/UTF8
Идентификатор кодека/Информация : UTF-8 Plain Text
Продолжительность : 1 ч. 21 м.
Битрейт : 63 бит/сек
Count of elements : 1296
Размер потока : 38,0 Кбайт (0%)
Заголовок : German
Язык : German
Default : Нет
Forced : Нет

Текст #8
Идентификатор : 10
Формат : UTF-8
Идентификатор кодека : S_TEXT/UTF8
Идентификатор кодека/Информация : UTF-8 Plain Text
Продолжительность : 1 ч. 25 м.
Битрейт : 56 бит/сек
Count of elements : 1300
Размер потока : 35,5 Кбайт (0%)
Заголовок : Italian
Язык : Italian
Default : Нет
Forced : Нет

Текст #9
Идентификатор : 11
Формат : UTF-8
Идентификатор кодека : S_TEXT/UTF8
Идентификатор кодека/Информация : UTF-8 Plain Text
Продолжительность : 1 ч. 25 м.
Битрейт : 62 бит/сек
Count of elements : 1290
Размер потока : 39,1 Кбайт (0%)
Заголовок : Portuguese
Язык : Portuguese
Default : Нет
Forced : Нет

Текст #10
Идентификатор : 12
Формат : UTF-8
Идентификатор кодека : S_TEXT/UTF8
Идентификатор кодека/Информация : UTF-8 Plain Text
Продолжительность : 1 ч. 21 м.
Битрейт : 63 бит/сек
Count of elements : 1298
Размер потока : 38,2 Кбайт (0%)
Заголовок : Brazilian Portuguese
Язык : Portuguese
Default : Нет
Forced : Нет

Текст #11
Идентификатор : 13
Формат : UTF-8
Идентификатор кодека : S_TEXT/UTF8
Идентификатор кодека/Информация : UTF-8 Plain Text
Продолжительность : 1 ч. 25 м.
Битрейт : 61 бит/сек
Count of elements : 1301
Размер потока : 38,7 Кбайт (0%)
Заголовок : Polish
Язык : Polish
Default : Нет
Forced : Нет

Текст #12
Идентификатор : 14
Формат : UTF-8
Идентификатор кодека : S_TEXT/UTF8
Идентификатор кодека/Информация : UTF-8 Plain Text
Продолжительность : 1 ч. 25 м.
Битрейт : 59 бит/сек
Count of elements : 1303
Размер потока : 37,7 Кбайт (0%)
Заголовок : Turkish
Язык : Turkish
Default : Нет
Forced : Нет

Текст #13
Идентификатор : 15
Формат : UTF-8
Идентификатор кодека : S_TEXT/UTF8
Идентификатор кодека/Информация : UTF-8 Plain Text
Продолжительность : 1 ч. 25 м.
Битрейт : 60 бит/сек
Count of elements : 1227
Размер потока : 38,1 Кбайт (0%)
Заголовок : Swedish
Язык : Swedish
Default : Нет
Forced : Нет

Текст #14
Идентификатор : 16
Формат : UTF-8
Идентификатор кодека : S_TEXT/UTF8
Идентификатор кодека/Информация : UTF-8 Plain Text
Продолжительность : 1 ч. 25 м.
Битрейт : 63 бит/сек
Count of elements : 1289
Размер потока : 39,9 Кбайт (0%)
Заголовок : Danish
Язык : Danish
Default : Нет
Forced : Нет

Текст #15
Идентификатор : 17
Формат : UTF-8
Идентификатор кодека : S_TEXT/UTF8
Идентификатор кодека/Информация : UTF-8 Plain Text
Продолжительность : 1 ч. 25 м.
Битрейт : 61 бит/сек
Count of elements : 1274
Размер потока : 38,7 Кбайт (0%)
Заголовок : Finnish
Язык : Finnish
Default : Нет
Forced : Нет

Текст #16
Идентификатор : 18
Формат : UTF-8
Идентификатор кодека : S_TEXT/UTF8
Идентификатор кодека/Информация : UTF-8 Plain Text
Продолжительность : 1 ч. 25 м.
Битрейт : 53 бит/сек
Count of elements : 1221
Размер потока : 33,5 Кбайт (0%)
Заголовок : Dutch
Язык : Dutch
Default : Нет
Forced : Нет

Текст #17
Идентификатор : 19
Формат : UTF-8
Идентификатор кодека : S_TEXT/UTF8
Идентификатор кодека/Информация : UTF-8 Plain Text
Продолжительность : 1 ч. 25 м.
Битрейт : 88 бит/сек
Count of elements : 1305
Размер потока : 55,7 Кбайт (0%)
Заголовок : Hebrew
Язык : Hebrew
Default : Нет
Forced : Нет

Текст #18
Идентификатор : 20
Формат : UTF-8
Идентификатор кодека : S_TEXT/UTF8
Идентификатор кодека/Информация : UTF-8 Plain Text
Продолжительность : 1 ч. 25 м.
Битрейт : 110 бит/сек
Count of elements : 1306
Размер потока : 69,3 Кбайт (0%)
Заголовок : Arabic
Язык : Arabic
Default : Нет
Forced : Нет

Текст #19
Идентификатор : 21
Формат : UTF-8
Идентификатор кодека : S_TEXT/UTF8
Идентификатор кодека/Информация : UTF-8 Plain Text
Продолжительность : 1 ч. 25 м.
Битрейт : 167 бит/сек
Count of elements : 1304
Размер потока : 105 Кбайт (0%)
Заголовок : Hindi
Язык : Hindi
Default : Нет
Forced : Нет

Текст #20
Идентификатор : 22
Формат : UTF-8
Идентификатор кодека : S_TEXT/UTF8
Идентификатор кодека/Информация : UTF-8 Plain Text
Продолжительность : 1 ч. 25 м.
Битрейт : 201 бит/сек
Count of elements : 1304
Размер потока : 127 Кбайт (0%)
Заголовок : Tamil
Язык : Tamil
Default : Нет
Forced : Нет

Текст #21
Идентификатор : 23
Формат : UTF-8
Идентификатор кодека : S_TEXT/UTF8
Идентификатор кодека/Информация : UTF-8 Plain Text
Продолжительность : 1 ч. 25 м.
Битрейт : 173 бит/сек
Count of elements : 1303
Размер потока : 109 Кбайт (0%)
Заголовок : Telugu
Язык : Telugu
Default : Нет
Forced : Нет

Текст #22
Идентификатор : 24
Формат : UTF-8
Идентификатор кодека : S_TEXT/UTF8
Идентификатор кодека/Информация : UTF-8 Plain Text
Продолжительность : 1 ч. 25 м.
Битрейт : 63 бит/сек
Count of elements : 1291
Размер потока : 40,2 Кбайт (0%)
Заголовок : Indonesian
Язык : Indonesian
Default : Нет
Forced : Нет

Текст #23
Идентификатор : 25
Формат : UTF-8
Идентификатор кодека : S_TEXT/UTF8
Идентификатор кодека/Информация : UTF-8 Plain Text
Продолжительность : 1 ч. 25 м.
Битрейт : 153 бит/сек
Count of elements : 1304
Размер потока : 96,4 Кбайт (0%)
Заголовок : Thai
Язык : Thai
Default : Нет
Forced : Нет

Текст #24
Идентификатор : 26
Формат : UTF-8
Идентификатор кодека : S_TEXT/UTF8
Идентификатор кодека/Информация : UTF-8 Plain Text
Продолжительность : 1 ч. 25 м.
Битрейт : 69 бит/сек
Count of elements : 1304
Размер потока : 43,5 Кбайт (0%)
Заголовок : Korean
Язык : Korean
Default : Нет
Forced : Нет

Текст #25
Идентификатор : 27
Формат : UTF-8
Идентификатор кодека : S_TEXT/UTF8
Идентификатор кодека/Информация : UTF-8 Plain Text
Продолжительность : 1 ч. 25 м.
Битрейт : 65 бит/сек
Count of elements : 1304
Размер потока : 41,3 Кбайт (0%)
Заголовок : Chinese (Simplified)
Язык : Chinese
Default : Нет
Forced : Нет

Текст #26
Идентификатор : 28
Формат : UTF-8
Идентификатор кодека : S_TEXT/UTF8
Идентификатор кодека/Информация : UTF-8 Plain Text
Продолжительность : 1 ч. 25 м.
Битрейт : 58 бит/сек
Count of elements : 1304
Размер потока : 36,7 Кбайт (0%)
Заголовок : Chinese (Traditional)
Язык : Chinese
Default : Нет
Forced : Нет

Текст #27
Идентификатор : 29
Формат : UTF-8
Идентификатор кодека : S_TEXT/UTF8
Идентификатор кодека/Информация : UTF-8 Plain Text
Продолжительность : 1 ч. 25 м.
Битрейт : 55 бит/сек
Count of elements : 1444
Размер потока : 35,1 Кбайт (0%)
Заголовок : Japanese
Язык : Japanese
Default : Нет
Forced : Нет

Меню
00:00:00.000 : en:Amazon Original
00:00:23.000 : en:Studio Logo
00:00:32.000 : en:The Duke of Edinburgh Award
00:01:56.000 : en:Opening Credits | A long drive
00:02:56.000 : en:Roll call
00:05:59.000 : en:An overview of the course
00:09:07.000 : en:Title Sequence
00:09:21.000 : en:Teamwork
00:16:45.000 : en:A warning about the Highlands
00:19:18.000 : en:An unexpected twist
00:26:23.000 : en:A new priority
00:27:53.000 : en:Suspicions run high
00:34:13.000 : en:Meet The Duchess
00:36:33.000 : en:This is an important case
00:37:32.000 : en:Failing at teamwork
00:39:13.000 : en:Finding clues
00:40:47.000 : en:An argument
00:42:36.000 : en:Ian tries to run
00:43:25.000 : en:Hiding in caves
00:44:22.000 : en:Hiding in old ruins
00:45:21.000 : en:Entering the barn
00:46:28.000 : en:Running from The Duke
00:47:02.000 : en:The high-lands
00:48:18.000 : en:Ian's in trouble
00:49:48.000 : en:DJ Beatroot
00:56:01.000 : en:Teamwork
00:59:30.000 : en:A change in priorities
01:02:51.000 : en:Orienteering
01:04:12.000 : en:Trail of clues
01:04:56.000 : en:Farmer's courage
01:07:42.000 : en:Get duked!
01:15:29.000 : en:The Duke of Edinburgh Award
01:21:07.000 : en:Give 'em hell
01:22:32.000 : en:Final Title Sequence
01:23:10.000 : en:End Credits

Скриншоты
 

Вложения

  • 24,3 KB Просмотры: 0
    Личеров 0
    Сидеров 0
    Файлов 1
    Объем 4,7 GB

Привет!

Мы группа людей которые решили помочь другим в решении их проблем, а так же пользователям с поиском самых свежих и качественных инфопродуктов. За 4 с небольшим месяца мы создали этот форум на который заходят ежедневно тысячи человек и посещаемость постоянно растёт. Мы создали панель лицензирования для защиты PHP скриптов от воровства и SEO панель для мониторинга наших сайтов и выбора верной стратегии их развития. Мы надеемся что то что мы создали пригодится Вам и возможно Вы поможете нам развиваться и совершенствоваться вместе с Вами.

Статистика форума

Темы
406.640
Сообщения
465.115
Пользователи
84.568
Новый пользователь
Max007

Приложения форума для iOS и Android


У ркн там нет власти ;)
Приватные разговоры
Помощь Пользователи
    Вы не присоединились ни к одной комнате.