За последнюю неделю опубликовано 45 новых материалов.
Инструкция новичку Путеводитель по форуму Прокси для Telegram Показать подсказки , это бомба!

Скачать Выжившая / Месть / Revenge (2017) BDRemux 1080p | P | iTunes бесплатно через торрент

  • Поучаствуй (в качестве покупателя) в любых пяти совместных покупках (кроме завершённых и "Моментальных") и получи группу "Новичок" навсегда -> ссылка на раздел
  • Получай до 480 рублей за каждого приглашенного пользователя!
    представляем Вам очередное расширение партнерской программы, подробности описаны тут -> ссылка
  • 90% материалов доступно к скачиванию после простой регистрации!
    Если же ты хочешь скачивать материалы без требования оставлять отзывы то получи группу "Новичок", 10 способов повышения описаны тут -> ссылка
  • К сожалению количество битых ссылок растет и мы уже не можем их оперативно восстанавливать поэтому просим помощи у каждого нашего пользователя.
    С сегодняшнего дня, за каждую восстановленную ссылку мы заплатим Вам.
    Подробнее тут -> ссылка
  • Перенесем твои заслуги с другого ресурса!
    Мы понимаем как сложно прокачивать аккаунты на форумах, вроде раскачал аккаунт, а тут появляется ресурс в 100 раз круче но тоже с системой прокачки и снова качать аккаунт...
    Предлагаем вам перенести Ваши заслуги на другом подобном ресурсе к нам.
    Подробности описаны тут -> ссылка
  • Вы можете получать по 2.5% с каждой покупки и продажи на маркете! Подробности в теме Партнёрская программа
Если Вы не хотите скачивать, Вы всегда можетепосмотретьонлайн, просто нажмите кнопку ниже :

Открыть плеер

Torrent_Bot

Торрент-Бот
Бот форума
4 Окт 2016
93
156
20
Информация о фильме
Название: Выжившая / Месть
Оригинальное название: Revenge
Год выхода: 2017
Жанр: ужасы, боевик, триллер
Режиссер: Корали Фаржеа
В ролях: Матильда Анна Ингрид Лутс, Кевин Дженссенс, Винсент Колумб, Гийом Бушед, Эвант Странгел

О фильме:
Молодая американка Дженифер проводит выходные с женатым французским бойфрендом в уединенном комфортабельном доме с бассейном. Внезапно раньше времени туда заявляются двое его друзей, с которыми он договорился поохотиться в уик-энд. Девушке стоило бы вести себя поскромнее в присутствии незнакомых мужчин, но желая разжечь страсть любовника, Дженифер слегка заигрывает с его другом.



Страна: Франция
Студия: M.E.S. Productions, Monkey Pack Films, Charades
Продолжительность: 01:48:08
Перевод: Профессиональный (многоголосый, закадровый) | iTunes
Профессиональный (многоголосый, закадровый) | HDrezka Studio

Файл
Качество: BDRemux 1080p | P | iTunes
Видео: AVC/H.264, 1920x1080, ~23,0 Мbps, 24 fps
Звук:
Аудио 1: AC3, 6 ch, 384 Kbps - Русский (MVO iTunes)
Аудио 2: AC3, 2 ch, 192 Kbps - Русский (MVO HDrezka)
Аудио 3: TrueHD, 6 ch, 2762 Kbps - Английский
Аудио 4: AC3, 6 ch, 640 Kbps - Английский
Субтитры: Русские, Английские

Примечание
Видеоряд без английского хардсаба.
Mediainfo
Общее
Уникальный идентификатор : 309639259122388679381669724493799034147 (0xE8F25A23E45B215706A8CD85E4790D23)
Полное имя : Revenge.2017.Remux.W.mkv
Формат : Matroska
Версия формата : Version 4
Размер файла : 20,5 Гбайт
Продолжительность : 1 ч. 48 м.
Режим общего битрейта : Переменный
Общий поток : 27,1 Мбит/сек
Название фильма : Revenge.2017.Remux.W
Дата кодирования : UTC 2018-09-16 19:52:04
Программа кодирования : mkvmerge v23.0.0 ('The Bride Said No') 64-bit
Библиотека кодирования : libebml v1.3.6 + libmatroska v1.4.9

Видео
Идентификатор : 1
Формат : AVC
Формат/Информация : Advanced Video Codec
Профиль формата : [email protected]
Настройки формата : CABAC / 4 Ref Frames
Параметр CABAC формата : Да
Параметр RefFrames формата : 4 кадра
Идентификатор кодека : V_MPEG4/ISO/AVC
Продолжительность : 1 ч. 48 м.
Вид битрейта : Переменный
Битрейт : 23,0 Мбит/сек
Максимальный битрейт : 30,0 Мбит/сек
Ширина : 1920 пикселей
Высота : 1080 пикселей
Соотношение сторон : 16:9
Режим частоты кадров : Постоянный
Частота кадров : 24,000 кадра/сек
Стандарт вещания : NTSC
Цветовое пространство : YUV
Субдискретизация насыщенности : 4:2:0
Битовая глубина : 8 бит
Тип развёртки : Прогрессивная
Бит/(Пиксели*Кадры) : 0.463
Размер потока : 17,4 Гбайт (85%)
Язык : French
Default : Да
Forced : Нет
Цветовой диапазон : Limited
Основные цвета : BT.709
Характеристики трансфера : BT.709
Коэффициенты матрицы : BT.709

Аудио #1
Идентификатор : 2
Формат : AC-3
Формат/Информация : Audio Coding 3
Коммерческое название : Dolby Digital
Идентификатор кодека : A_AC3
Продолжительность : 1 ч. 48 м.
Вид битрейта : Постоянный
Битрейт : 384 Кбит/сек
Каналы : 6 каналов
Channel layout : L R C LFE Ls Rs
Частота : 48,0 КГц
Частота кадров : 31,250 кадров/сек (1536 SPF)
Битовая глубина : 16 бит
Метод сжатия : С потерями
Размер потока : 297 Мбайт (1%)
Заголовок : MVO | iTunes
Язык : Russian
ServiceKind : Complete Main
Default : Да
Forced : Нет

Аудио #2
Идентификатор : 3
Формат : AC-3
Формат/Информация : Audio Coding 3
Коммерческое название : Dolby Digital
Идентификатор кодека : A_AC3
Продолжительность : 1 ч. 48 м.
Вид битрейта : Постоянный
Битрейт : 192 Кбит/сек
Каналы : 2 канала
Channel layout : L R
Частота : 48,0 КГц
Частота кадров : 31,250 кадров/сек (1536 SPF)
Битовая глубина : 16 бит
Метод сжатия : С потерями
Размер потока : 148 Мбайт (1%)
Заголовок : MVO | HDRezka Studio
Язык : Russian
ServiceKind : Complete Main
Default : Нет
Forced : Нет

Аудио #3
Идентификатор : 4
Формат : MLP FBA
Формат/Информация : Meridian Lossless Packing FBA
Коммерческое название : Dolby TrueHD
Идентификатор кодека : A_TRUEHD
Продолжительность : 1 ч. 48 м.
Вид битрейта : Переменный
Битрейт : 2762 Кбит/сек
Максимальный битрейт : 4554 Кбит/сек
Каналы : 6 каналов
Channel layout : L R C LFE Ls Rs
Частота : 96,0 КГц
Частота кадров : 1200,000 кадров/сек (80 SPF)
Метод сжатия : Без потерь
Размер потока : 2,09 Гбайт (10%)
Язык : English
Default : Нет
Forced : Нет

Аудио #4
Идентификатор : 5
Формат : AC-3
Формат/Информация : Audio Coding 3
Коммерческое название : Dolby Digital
Идентификатор кодека : A_AC3
Продолжительность : 1 ч. 48 м.
Вид битрейта : Постоянный
Битрейт : 640 Кбит/сек
Каналы : 6 каналов
Channel layout : L R C LFE Ls Rs
Частота : 48,0 КГц
Частота кадров : 31,250 кадров/сек (1536 SPF)
Битовая глубина : 16 бит
Метод сжатия : С потерями
Размер потока : 495 Мбайт (2%)
Язык : English
ServiceKind : Complete Main
Default : Нет
Forced : Нет

Текст #1
Идентификатор : 6
Формат : UTF-8
Идентификатор кодека : S_TEXT/UTF8
Идентификатор кодека/Информация : UTF-8 Plain Text
Продолжительность : 1 ч. 40 м.
Битрейт : 19 бит/сек
ElementCount : 308
Размер потока : 14,0 Кбайт (0%)
Заголовок : Full
Язык : Russian
Default : Нет
Forced : Нет

Текст #2
Идентификатор : 7
Формат : UTF-8
Идентификатор кодека : S_TEXT/UTF8
Идентификатор кодека/Информация : UTF-8 Plain Text
Продолжительность : 1 ч. 40 м.
Битрейт : 8 бит/сек
ElementCount : 254
Размер потока : 6,47 Кбайт (0%)
Заголовок : Full
Язык : English
Default : Нет
Forced : Нет

Меню
00:00:00.000 : en:Chapter 1
00:09:35.833 : en:Chapter 2
00:16:26.500 : en:Chapter 3
00:30:24.166 : en:Chapter 4
00:37:35.875 : en:Chapter 5
00:45:25.708 : en:Chapter 6
00:52:58.000 : en:Chapter 7
01:04:44.583 : en:Chapter 8
01:13:15.750 : en:Chapter 9
01:18:59.375 : en:Chapter 10
01:29:55.083 : en:Chapter 11
01:38:47.291 : en:Chapter 12
01:48:08.166 : en:Chapter 13
Скриншоты
 

Вложения

  • 52,1 KB Просмотры: 1
    Личеров 0
    Сидеров 0
    Файлов 1
    Объем 20,5 GB

Привет!

Мы группа людей которые решили помочь другим в решении их проблем, а так же пользователям с поиском самых свежих и качественных инфопродуктов. За 4 с небольшим месяца мы создали этот форум на который заходят ежедневно тысячи человек и посещаемость постоянно растёт. Мы создали панель лицензирования для защиты PHP скриптов от воровства и SEO панель для мониторинга наших сайтов и выбора верной стратегии их развития. Мы надеемся что то что мы создали пригодится Вам и возможно Вы поможете нам развиваться и совершенствоваться вместе с Вами.

Статистика форума

Темы
406.579
Сообщения
464.792
Пользователи
83.568
Новый пользователь
Renatarezapova

Приложения форума для iOS и Android


У ркн там нет власти ;)
Приватные разговоры
Помощь Пользователи
    Вы не присоединились ни к одной комнате.