За последнюю неделю опубликовано 47 новых материалов.
Инструкция новичку Путеводитель по форуму Прокси для Telegram Показать подсказки , это бомба!

Скачать Выстрел (1966) DVDRip + Допы бесплатно через торрент

  • Поучаствуй (в качестве покупателя) в любых пяти совместных покупках (кроме завершённых и "Моментальных") и получи группу "Новичок" навсегда -> ссылка на раздел
  • Получай до 480 рублей за каждого приглашенного пользователя!
    представляем Вам очередное расширение партнерской программы, подробности описаны тут -> ссылка
  • 90% материалов доступно к скачиванию после простой регистрации!
    Если же ты хочешь скачивать материалы без требования оставлять отзывы то получи группу "Новичок", 10 способов повышения описаны тут -> ссылка
  • К сожалению количество битых ссылок растет и мы уже не можем их оперативно восстанавливать поэтому просим помощи у каждого нашего пользователя.
    С сегодняшнего дня, за каждую восстановленную ссылку мы заплатим Вам.
    Подробнее тут -> ссылка
  • Перенесем твои заслуги с другого ресурса!
    Мы понимаем как сложно прокачивать аккаунты на форумах, вроде раскачал аккаунт, а тут появляется ресурс в 100 раз круче но тоже с системой прокачки и снова качать аккаунт...
    Предлагаем вам перенести Ваши заслуги на другом подобном ресурсе к нам.
    Подробности описаны тут -> ссылка
  • Вы можете получать по 2.5% с каждой покупки и продажи на маркете! Подробности в теме Партнёрская программа
Если Вы не хотите скачивать, Вы всегда можетепосмотретьонлайн, просто нажмите кнопку ниже :

Открыть плеер

Torrent_Bot

Торрент-Бот
Бот форума
4 Окт 2016
93
160
20

Информация о фильме:

Название: Выстрел
Оригинальное название: Vystrel
Год выхода: 1966
Жанр:Драма, Советское кино



Режиссер: Наум Трахтенберг
Сценаристы: Александр Пушкин /рассказ/, Николай Коварский
Оператор: Семен Шейнин
Композитор: Карэн Хачатурян



В фильме снимались:
Михаил Козаков /Сильвио/
Юрий Яковлев /граф/
Олег Табаков /Белкин/
Ариадна Шенгелая /Маша/
Валерий Бабятинский /прапорщик/
Владлен Давыдов /полковник/
Борис Новиков /Кузька/
Лев Поляков /майор/
Валентина Березуцкая /хозяйка/
Раиса Конюхова
Владимир Прокофьев
Виктор Володин
Варвара Попова
Валериан Квачадзе
Герман Юшко
и другие...



Описание: Получив пощечину, офицер Сильвио вызывает графа-обидчика на дуэль. Однако неотложные обстоятельства заставляют офицера уехать, оставив за собой право выстрела. Через много лет, накануне свадьбы графа, Сильвио возвращается требовать возмездия.

Альтернативное описание
Экранизация одноименной повести А.С. Пушкина из "Повестей Белкина".
Получив пощёчину, офицер Сильвио вызывает графа - обидчика на дуэль. Однако обстоятельства заставляют Сильвио уехать, оставив за собой право выстрела. Через много лет он возвращается...


Страна:
Выпущено: Мосфильм
Продолжительность: 01:13:12
Перевод: Не требуется



547fb450d1b0159b14b2c9c40d274dcb.gif





MediaInfo
Format : AVI
Format/Info : Audio Video Interleave
File size : 1.10 GiB
Duration : 1h 13mn
Overall bit rate : 2 154 Kbps
Writing application : VirtualDubMod 1.5.10.2 (build 2540/release)

Video
ID : 0
Format : MPEG-4 Visual
Format profile : Advanced [email protected]
Format settings, BVOP : Yes
Format settings, QPel : No
Format settings, GMC : No warppoints
Format settings, Matrix : Default (H.263)
Codec ID : XVID
Codec ID/Hint : XviD
Duration : 1h 13mn
Bit rate : 1 958 Kbps
Width : 704 pixels
Height : 528 pixels
Display aspect ratio : 4:3
Frame rate : 25.000 fps
Color space : YUV
Chroma subsampling : 4:2:0
Bit depth : 8 bits
Scan type : Progressive
Bits/(Pixel*Frame) : 0.211
Stream size : 1.00 GiB (91%)
Writing library : XviD 1.2.1 (UTC 2008-12-04)

Audio
ID : 1
Format : MPEG Audio
Format version : Version 1
Format profile : Layer 3
Codec ID : 55
Codec ID/Hint : MP3
Duration : 1h 13mn
Bit rate mode : Variable
Bit rate : 192 Kbps
Channel(s) : 2 channels
Sampling rate : 48.0 KHz
Stream size : 96.1 MiB (9%)
Alignment : Aligned on interleaves
Interleave, duration : 24 ms (0.60 video frame)
Interleave, preload duration : 100 ms
Writing library : LAME3.98r
Encoding settings : -m s -V 4 -q 2 -lowpass 18.6 --abr 192


Качество: DVDRip /Источник DVD5/
Формат: AVI
Видео кодек: XviD
Аудио кодек: MP3
Видео: 704x528 (1.33:1), 25 fps, XviD build 50 ~1957 kbps avg, 0.21 bit/pixel
Аудио: 48 kHz, MPEG Layer 3, 2 ch, ~183.59 kbps avg
Субтитры: Нет



Дополнительно:Мосфильм: Вчера и сегодня /75.98 Mb/



Осторожно !




Скриншоты



Автор рипа:
 

Вложения

Привет!

Мы группа людей которые решили помочь другим в решении их проблем, а так же пользователям с поиском самых свежих и качественных инфопродуктов. За 4 с небольшим месяца мы создали этот форум на который заходят ежедневно тысячи человек и посещаемость постоянно растёт. Мы создали панель лицензирования для защиты PHP скриптов от воровства и SEO панель для мониторинга наших сайтов и выбора верной стратегии их развития. Мы надеемся что то что мы создали пригодится Вам и возможно Вы поможете нам развиваться и совершенствоваться вместе с Вами.

Статистика форума

Темы
406.639
Сообщения
465.113
Пользователи
84.584
Новый пользователь
vax51371

Приложения форума для iOS и Android


У ркн там нет власти ;)
Приватные разговоры
Помощь Пользователи
    Вы не присоединились ни к одной комнате.