За последнюю неделю опубликовано 94 новых материалов.
Инструкция новичку Путеводитель по форуму Прокси для Telegram Показать подсказки , это бомба!

Скачать Выкрутасы (2011) BDRip от ivandubskoj бесплатно через торрент

  • Поучаствуй (в качестве покупателя) в любых пяти совместных покупках (кроме завершённых и "Моментальных") и получи группу "Новичок" навсегда -> ссылка на раздел
  • Получай до 480 рублей за каждого приглашенного пользователя!
    представляем Вам очередное расширение партнерской программы, подробности описаны тут -> ссылка
  • 90% материалов доступно к скачиванию после простой регистрации!
    Если же ты хочешь скачивать материалы без требования оставлять отзывы то получи группу "Новичок", 10 способов повышения описаны тут -> ссылка
  • К сожалению количество битых ссылок растет и мы уже не можем их оперативно восстанавливать поэтому просим помощи у каждого нашего пользователя.
    С сегодняшнего дня, за каждую восстановленную ссылку мы заплатим Вам.
    Подробнее тут -> ссылка
  • Перенесем твои заслуги с другого ресурса!
    Мы понимаем как сложно прокачивать аккаунты на форумах, вроде раскачал аккаунт, а тут появляется ресурс в 100 раз круче но тоже с системой прокачки и снова качать аккаунт...
    Предлагаем вам перенести Ваши заслуги на другом подобном ресурсе к нам.
    Подробности описаны тут -> ссылка
  • Вы можете получать по 2.5% с каждой покупки и продажи на маркете! Подробности в теме Партнёрская программа
Если Вы не хотите скачивать, Вы всегда можетепосмотретьонлайн, просто нажмите кнопку ниже :

Открыть плеер

Torrent_Bot

Торрент-Бот
Бот форума
4 Окт 2016
102
152
20
Информация о фильме
Название: Выкрутасы
Год выхода: 2011
Жанр: Комедия, приключения, мелодрама, спорт
Режиссёр: Леван Габриадзе
В ролях: Милла Йовович, Константин Хабенский, Иван Ургант, Александр Кержаков, Сергей Гармаш, Владимир Меньшов, Ольга Тумайкина, Сергей Селин, Галина Логинова, Татьяна Лютаева, Александра Назарова, Таисия Вилкова, Савва Гусев, Михаил Никольский, Дмитрий Гогу, Иван Дёмин, Глеб Степанов, Александр Рахимбеков, Олег Масленников, Джумбер Ардишвили, Михаил Гостищев, Юрий Гостищев, Иван Слесаренко, Александр Фарбер, Константин Степанов, Виталий Филипповых, Сергей Шеховцов, Александр Робак, Роман Мадянов

О фильме:
Что делать простому школьному учителю из сонного приморского городка с небанальным названием "Пальчики", если в Москве его ждёт - не дождётся красавица-невеста Надя, свадебный стол уже ломится от угощений, а гости готовы в любой момент грянуть "Горько"? Правильно. Бросать все дела, и пулей лететь в Златоглавую. Но Слава Колотилов накрепко застрял: в "Пальчиках" - идёт чемпионат страны по дворовому футболу, и крайним - то есть тренером местной команды - назначили именно его...



Страна: Россия
Студия: Базелевс Продакшн
Продолжительность: 01:40:48
Перевод: Не требуется

Файл
Кодек: XviD
Качество: BDRip [Исходник: Blu-Ray Remux (1080p) от RG Neofilm]
Видео: XviD, 640x272 (2.35:1), 924 Кбит/с, 23,976 кадр/с
Звук: Русский, MP3, 48000 Гц, 128 Кбит/с, 2 канала (Стерео)
Субтитры: Нет



MediaInfo
General
Complete name : Vikrutasi.2011.BDRip.avi
Format : AVI
Format/Info : Audio Video Interleave
File size : 765 MiB
Duration : 1h 40mn
Overall bit rate : 1 061 Kbps
Writing application : VirtualDubMod 1.5.10.3 | www.virtualdub-fr.org || (build 2550/release)
Writing library : VirtualDubMod build 2550/release

Video
ID : 0
Format : MPEG-4 Visual
Format profile : Advanced Simple@L5
Format settings, BVOP : 2
Format settings, QPel : No
Format settings, GMC : No warppoints
Format settings, Matrix : Custom
Codec ID : XVID
Codec ID/Hint : XviD
Duration : 1h 40mn
Bit rate : 924 Kbps
Width : 640 pixels
Height : 272 pixels
Display aspect ratio : 2.35:1
Frame rate : 23.976 fps
Color space : YUV
Chroma subsampling : 4:2:0
Bit depth : 8 bits
Scan type : Progressive
Compression mode : Lossy
Bits/(Pixel*Frame) : 0.221
Stream size : 666 MiB (87%)
Writing library : XviD 73

Audio
ID : 1
Format : MPEG Audio
Format version : Version 1
Format profile : Layer 3
Codec ID : 55
Codec ID/Hint : MP3
Duration : 1h 40mn
Bit rate mode : Constant
Bit rate : 128 Kbps
Channel(s) : 2 channels
Sampling rate : 48.0 KHz
Compression mode : Lossy
Stream size : 92.3 MiB (12%)
Alignment : Aligned on interleaves
Interleave, duration : 42 ms (1.00 video frame)
Interleave, preload duration : 504 ms
Writing library : LAME3.99r
Encoding settings : -m s -V 4 -q 0 -lowpass 17 -b 128
Скриншоты
Автор рипа - ivandubskoj
 

Вложения

  • 16 KB Просмотры: 1
    Личеров 0
    Сидеров 0
    Файлов 1
    Объем 765,1 MB

Привет!

Мы группа людей которые решили помочь другим в решении их проблем, а так же пользователям с поиском самых свежих и качественных инфопродуктов. За 4 с небольшим месяца мы создали этот форум на который заходят ежедневно тысячи человек и посещаемость постоянно растёт. Мы создали панель лицензирования для защиты PHP скриптов от воровства и SEO панель для мониторинга наших сайтов и выбора верной стратегии их развития. Мы надеемся что то что мы создали пригодится Вам и возможно Вы поможете нам развиваться и совершенствоваться вместе с Вами.

Статистика форума

Темы
404.586
Сообщения
461.454
Пользователи
80.274
Новый пользователь
annateren

Приложения форума для iOS и Android


У ркн там нет власти ;)
Приватные разговоры
Помощь Пользователи
    Вы не присоединились ни к одной комнате.