За последнюю неделю опубликовано 66 новых материалов.
Инструкция новичку Путеводитель по форуму Прокси для Telegram Показать подсказки , это бомба!

Скачать Выдра по имени Тарка / Tarka the Otter (1978) HDRip | КПК | P1 бесплатно через торрент

  • Поучаствуй (в качестве покупателя) в любых пяти совместных покупках (кроме завершённых и "Моментальных") и получи группу "Новичок" навсегда -> ссылка на раздел
  • Получай до 480 рублей за каждого приглашенного пользователя!
    представляем Вам очередное расширение партнерской программы, подробности описаны тут -> ссылка
  • 90% материалов доступно к скачиванию после простой регистрации!
    Если же ты хочешь скачивать материалы без требования оставлять отзывы то получи группу "Новичок", 10 способов повышения описаны тут -> ссылка
  • К сожалению количество битых ссылок растет и мы уже не можем их оперативно восстанавливать поэтому просим помощи у каждого нашего пользователя.
    С сегодняшнего дня, за каждую восстановленную ссылку мы заплатим Вам.
    Подробнее тут -> ссылка
  • Перенесем твои заслуги с другого ресурса!
    Мы понимаем как сложно прокачивать аккаунты на форумах, вроде раскачал аккаунт, а тут появляется ресурс в 100 раз круче но тоже с системой прокачки и снова качать аккаунт...
    Предлагаем вам перенести Ваши заслуги на другом подобном ресурсе к нам.
    Подробности описаны тут -> ссылка
  • Вы можете получать по 2.5% с каждой покупки и продажи на маркете! Подробности в теме Партнёрская программа
Если Вы не хотите скачивать, Вы всегда можетепосмотретьонлайн, просто нажмите кнопку ниже :

Открыть плеер

Torrent_Bot

Торрент-Бот
Бот форума
4 Окт 2016
92
163
20



Информация о фильме
Название: Выдра по имени Тарка
Оригинальное название: Tarka the Otter
Год выхода: 1978
Жанр: Семейный, драма, приключения
Режиссер: Дэвид Кобхэм
В ролях: Питер Беннетт, Эдвард Андердаун, Бренда Кавендиш, Джон Лисон, Рег Лие, Джордж Варинг, Стэнли Лебор, Макс Фолкнер, Спейд

О фильме:
Это правдивая история жизни маленького любопытного зверька по имени Тарка. Тарка родился на берегах реки Торридж в Англии и с самого рождения своей любознательностью доставлял много хлопот и забот как своим родителям, так и другим обитателям этой местности.



Страна: Великобритания
Студия: Tor Films, The Rank Organisation, National Film Finance Corporation (NFFC)
Продолжительность: 01:31:30
Перевод: Профессиональный (одноголосый, закадровый) | А. Васильев (КС "Довженко")

Файл
Формат: MP4
Качество: HDRip (исх. BDRip 1080p от HDReactor) *
Видео: AVC, 640x384 (5:3), at 24.000 fps, 1000 kb/s
Аудио: AAC LC SBR (HE-AAC), 48.0 KHz, 2 ch, 64 kb/s
Субтитры: Русские (full), Английские (SDH)

* за исходник спасибо V-ad

MediaInfo
General
Complete name : Tarka.the.Otter.1978.HDRip.mp4
Format : MPEG-4
Format profile : Base Media
Codec ID : isom (isom)
File size : 698 MiB
Duration : 1 h 31 min
Overall bit rate mode : Variable
Overall bit rate : 1 067 kb/s
Encoded date : UTC 2020-07-14 15:43:23
Tagged date : UTC 2020-07-14 15:43:23
Writing application : Yamb 2.1.0.0 [http://yamb.unite-video.com]

Video
ID : 1
Format : AVC
Format/Info : Advanced Video Codec
Format profile : [email protected]
Format settings : CABAC / 14 Ref Frames
Format settings, CABAC : Yes
Format settings, RefFrames : 14 frames
Codec ID : avc1
Codec ID/Info : Advanced Video Coding
Duration : 1 h 31 min
Bit rate : 1 000 kb/s
Maximum bit rate : 5 258 kb/s
Width : 640 pixels
Height : 384 pixels
Display aspect ratio : 5:3
Frame rate mode : Constant
Frame rate : 24.000 FPS
Color space : YUV
Chroma subsampling : 4:2:0
Bit depth : 8 bits
Scan type : Progressive
Bits/(Pixel*Frame) : 0.170
Stream size : 654 MiB (94%)
Title : Tarka the Otter
Writing library : x264 core 152 r2851 ba24899
Encoding settings : cabac=1 / ref=14 / deblock=1:-2:-2 / analyse=0x3:0x113 / me=umh / subme=10 / psy=1 / psy_rd=1.00:0.00 / mixed_ref=1 / me_range=32 / chroma_me=1 / trellis=2 / 8x8dct=1 / cqm=0 / deadzone=21,11 / fast_pskip=0 / chroma_qp_offset=-2 / threads=6 / lookahead_threads=1 / sliced_threads=0 / nr=0 / decimate=0 / interlaced=0 / bluray_compat=0 / constrained_intra=0 / bframes=14 / b_pyramid=2 / b_adapt=2 / b_bias=0 / direct=3 / weightb=1 / open_gop=0 / weightp=2 / keyint=250 / keyint_min=24 / scenecut=40 / intra_refresh=0 / rc=2pass / mbtree=0 / bitrate=1000 / ratetol=1.0 / qcomp=0.80 / qpmin=0 / qpmax=69 / qpstep=4 / cplxblur=20.0 / qblur=0.5 / ip_ratio=1.25 / pb_ratio=1.30 / aq=2:1.00
Language : English
Encoded date : UTC 2020-07-06 08:53:40
Tagged date : UTC 2020-07-14 15:44:13
Codec configuration box : avcC

Audio
ID : 2
Format : AAC LC SBR
Format/Info : Advanced Audio Codec Low Complexity with Spectral Band Replication
Commercial name : HE-AAC
Format settings : Explicit
Codec ID : mp4a-40-2
Duration : 1 h 31 min
Bit rate mode : Variable
Bit rate : 64.0 kb/s
Maximum bit rate : 209 kb/s
Channel(s) : 2 channels
Channel layout : L R
Sampling rate : 48.0 kHz
Frame rate : 23.438 FPS (2048 SPF)
Compression mode : Lossy
Stream size : 41.9 MiB (6%)
Title : VO - A.Vasiliev
Language : Russian
Encoded date : UTC 2020-07-14 15:44:11
Tagged date : UTC 2020-07-14 15:44:13

Text #1
ID : 3
Format : Timed Text
Codec ID : tx3g
Duration : 1 h 29 min
Bit rate mode : Variable
Bit rate : 70 b/s
Stream size : 46.3 KiB (0%)
Title : full
Language : Russian
Forced : No
Encoded date : UTC 2020-07-14 15:44:13
Tagged date : UTC 2020-07-14 15:44:13

Text #2
ID : 4
Format : Timed Text
Codec ID : tx3g
Duration : 1 h 30 min
Bit rate mode : Variable
Bit rate : 39 b/s
Stream size : 26.1 KiB (0%)
Title : SDH
Language : English
Forced : No
Encoded date : UTC 2020-07-14 15:44:13
Tagged date : UTC 2020-07-14 15:44:13
Скриншоты
 

Вложения

  • 14,6 KB Просмотры: 0
    Личеров 0
    Сидеров 0
    Файлов 1
    Объем 698,3 MB

Привет!

Мы группа людей которые решили помочь другим в решении их проблем, а так же пользователям с поиском самых свежих и качественных инфопродуктов. За 4 с небольшим месяца мы создали этот форум на который заходят ежедневно тысячи человек и посещаемость постоянно растёт. Мы создали панель лицензирования для защиты PHP скриптов от воровства и SEO панель для мониторинга наших сайтов и выбора верной стратегии их развития. Мы надеемся что то что мы создали пригодится Вам и возможно Вы поможете нам развиваться и совершенствоваться вместе с Вами.

Статистика форума

Темы
406.677
Сообщения
465.122
Пользователи
84.734
Новый пользователь
andrey564

Приложения форума для iOS и Android


У ркн там нет власти ;)
Приватные разговоры
Помощь Пользователи
    Вы не присоединились ни к одной комнате.