За последнюю неделю опубликовано 45 новых материалов.
Инструкция новичку Путеводитель по форуму Прокси для Telegram Показать подсказки , это бомба!

Скачать Встреча выпускников 1.0 / Klassentreffen 1.0 (2018) BDRip 720p | iTunes бесплатно через торрент

  • Поучаствуй (в качестве покупателя) в любых пяти совместных покупках (кроме завершённых и "Моментальных") и получи группу "Новичок" навсегда -> ссылка на раздел
  • Получай до 480 рублей за каждого приглашенного пользователя!
    представляем Вам очередное расширение партнерской программы, подробности описаны тут -> ссылка
  • 90% материалов доступно к скачиванию после простой регистрации!
    Если же ты хочешь скачивать материалы без требования оставлять отзывы то получи группу "Новичок", 10 способов повышения описаны тут -> ссылка
  • К сожалению количество битых ссылок растет и мы уже не можем их оперативно восстанавливать поэтому просим помощи у каждого нашего пользователя.
    С сегодняшнего дня, за каждую восстановленную ссылку мы заплатим Вам.
    Подробнее тут -> ссылка
  • Перенесем твои заслуги с другого ресурса!
    Мы понимаем как сложно прокачивать аккаунты на форумах, вроде раскачал аккаунт, а тут появляется ресурс в 100 раз круче но тоже с системой прокачки и снова качать аккаунт...
    Предлагаем вам перенести Ваши заслуги на другом подобном ресурсе к нам.
    Подробности описаны тут -> ссылка
  • Вы можете получать по 2.5% с каждой покупки и продажи на маркете! Подробности в теме Партнёрская программа
Если Вы не хотите скачивать, Вы всегда можетепосмотретьонлайн, просто нажмите кнопку ниже :

Открыть плеер

Torrent_Bot

Торрент-Бот
Бот форума
4 Окт 2016
90
168
20


Информация о фильме
Название: Встреча выпускников 1.0
Оригинальное название: Klassentreffen 1.0
Год выхода: 2018
Жанр: комедия

Режиссер: Тиль Швайгер

В ролях: Тиль Швайгер, Самуэль Финци, Милан Пешель, Лили Швайгер, Штефани Штаппенбек, Жанетт Хайн, Дэвид Шюттер, Катарина Шюттлер, Симон Шварц, Бьянка Наврат

О фильме: Когда им было всего 18 лет, Нильс, Томас и Андреас считали себя бессмертными. Увы, приглашение на встречу бывших одноклассников 30 лет спустя лучше любых слов напоминает, как быстро летит время. Приятели считают, что это отличный повод снова пуститься в разгул: их ждут лихие вечеринки, выпивка и женское общество! По крайней мере, таков был первоначальный план… Но вместо этого их ждут сопутствующие возрасту проблемы, неоднократно разбитые сердца и непослушная дочь женщины, когда-то сумевшей покорить Томаса: семнадцатилетняя Лили обожает указывать старшему поколению на его ошибки! Щедрая порция гелия, много коктейлей мартини и вдохновенная лекция о вреде «экстази» пускают их планы под откос. К счастью, по дороге домой друзья осознают, что в жизни есть вещи и поважнее — дружба, семья и настоящая любовь!





Страна: Германия
Продолжительность: 02:07:17
Перевод: Профессиональный (дублированный) | iTunes


Файл
Кодек: x.264
Качество: BDRip 720p
Видео: AVC, 1280x536 (2.40:1), 23.976 fps, 4 888 kb/s
Аудио: AC3, 48.0 KHz, 6 ch, 384 Kbps
Субтитры: Отсутствуют

Сэмпл


MI
General
Unique ID : 249261089945812693960544606729126963882 (0xBB85F090D104AC0A92210007FA066AAA)
Complete name : Vstrecha.vyipusknikov.2018.BDRip.720p.mkv
Format : Matroska
Format version : Version 4
File size : 4.69 GiB
Duration : 2 h 7 min
Overall bit rate : 5 271 kb/s
Encoded date : UTC 2019-06-19 10:33:56
Writing application : mkvmerge v8.3.0 ('Over the Horizon') 64bit
Writing library : libebml v1.3.1 + libmatroska v1.4.2

Video
ID : 1
Format : AVC
Format/Info : Advanced Video Codec
Format profile : [email protected]
Format settings : CABAC / 5 Ref Frames
Format settings, CABAC : Yes
Format settings, ReFrames : 5 frames
Codec ID : V_MPEG4/ISO/AVC
Duration : 2 h 7 min
Bit rate : 4 888 kb/s
Width : 1 280 pixels
Height : 536 pixels
Display aspect ratio : 2.40:1
Frame rate mode : Constant
Frame rate : 23.976 (24000/1001) FPS
Color space : YUV
Chroma subsampling : 4:2:0
Bit depth : 8 bits
Scan type : Progressive
Bits/(Pixel*Frame) : 0.297
Stream size : 4.34 GiB (93%)
Writing library : x264 core 146 r2538 121396c
Encoding settings : cabac=1 / ref=5 / deblock=1:0:0 / analyse=0x3:0x113 / me=umh / subme=8 / psy=1 / psy_rd=1.00:0.00 / mixed_ref=1 / me_range=16 / chroma_me=1 / trellis=1 / 8x8dct=1 / cqm=0 / deadzone=21,11 / fast_pskip=1 / chroma_qp_offset=-2 / threads=18 / lookahead_threads=3 / sliced_threads=0 / nr=0 / decimate=1 / interlaced=0 / bluray_compat=0 / constrained_intra=0 / bframes=3 / b_pyramid=2 / b_adapt=2 / b_bias=0 / direct=3 / weightb=1 / open_gop=0 / weightp=2 / keyint=250 / keyint_min=23 / scenecut=40 / intra_refresh=0 / rc_lookahead=50 / rc=2pass / mbtree=1 / bitrate=4888 / ratetol=1.0 / qcomp=0.60 / qpmin=0 / qpmax=69 / qpstep=4 / cplxblur=20.0 / qblur=0.5 / vbv_maxrate=62500 / vbv_bufsize=78125 / nal_hrd=none / filler=0 / ip_ratio=1.40 / aq=1:1.00
Default : Yes
Forced : No
Color range : Limited
Matrix coefficients : BT.709

Audio
ID : 2
Format : AC-3
Format/Info : Audio Coding 3
Commercial name : Dolby Digital
Codec ID : A_AC3
Duration : 2 h 7 min
Bit rate mode : Constant
Bit rate : 384 kb/s
Channel(s) : 6 channels
Channel layout : L R C LFE Ls Rs
Sampling rate : 48.0 kHz
Frame rate : 31.250 FPS (1536 SPF)
Bit depth : 16 bits
Compression mode : Lossy
Stream size : 350 MiB (7%)
Title : iTunes
Language : Russian
Default : Yes
Forced : No
Скриншоты
 

Вложения

  • 12,6 KB Просмотры: 1
    Личеров 0
    Сидеров 0
    Файлов 1
    Объем 4,7 GB

Привет!

Мы группа людей которые решили помочь другим в решении их проблем, а так же пользователям с поиском самых свежих и качественных инфопродуктов. За 4 с небольшим месяца мы создали этот форум на который заходят ежедневно тысячи человек и посещаемость постоянно растёт. Мы создали панель лицензирования для защиты PHP скриптов от воровства и SEO панель для мониторинга наших сайтов и выбора верной стратегии их развития. Мы надеемся что то что мы создали пригодится Вам и возможно Вы поможете нам развиваться и совершенствоваться вместе с Вами.

Статистика форума

Темы
410.923
Сообщения
469.337
Пользователи
88.225
Новый пользователь
serg202121

Приложения форума для iOS и Android


У ркн там нет власти ;)
Приватные разговоры
Помощь Пользователи
    Вы не присоединились ни к одной комнате.