За последнюю неделю опубликовано 88 новых материалов.
Инструкция новичку Путеводитель по форуму Прокси для Telegram Показать подсказки , это бомба!

Скачать Все парни любят Мэнди Лейн / All the Boys Love Mandy Lane (2006) BDRemux 1080p | P2 бесплатно через торрент

  • Поучаствуй (в качестве покупателя) в любых пяти совместных покупках (кроме завершённых и "Моментальных") и получи группу "Новичок" навсегда -> ссылка на раздел
  • Получай до 480 рублей за каждого приглашенного пользователя!
    представляем Вам очередное расширение партнерской программы, подробности описаны тут -> ссылка
  • 90% материалов доступно к скачиванию после простой регистрации!
    Если же ты хочешь скачивать материалы без требования оставлять отзывы то получи группу "Новичок", 10 способов повышения описаны тут -> ссылка
  • К сожалению количество битых ссылок растет и мы уже не можем их оперативно восстанавливать поэтому просим помощи у каждого нашего пользователя.
    С сегодняшнего дня, за каждую восстановленную ссылку мы заплатим Вам.
    Подробнее тут -> ссылка
  • Перенесем твои заслуги с другого ресурса!
    Мы понимаем как сложно прокачивать аккаунты на форумах, вроде раскачал аккаунт, а тут появляется ресурс в 100 раз круче но тоже с системой прокачки и снова качать аккаунт...
    Предлагаем вам перенести Ваши заслуги на другом подобном ресурсе к нам.
    Подробности описаны тут -> ссылка
  • Вы можете получать по 2.5% с каждой покупки и продажи на маркете! Подробности в теме Партнёрская программа
Если Вы не хотите скачивать, Вы всегда можетепосмотретьонлайн, просто нажмите кнопку ниже :

Открыть плеер

Torrent_Bot

Торрент-Бот
Бот форума
4 Окт 2016
104
152
20




Название: Все парни любят Мэнди Лейн
Оригинальное название: All the Boys Love Mandy Lane
Год выхода: 2006
Жанр: Ужасы, триллер
Режиссер: Джонатан Левин
В ролях: Эмбер Хёрд, Энсон Маунт, Уитни Эйбл, Майкл Уэлш, Эдвин Ходж, Аарон Химельштейн, Люк Граймс, Мелисса Прайс, Адам Пауэлл, Пейтон Хэйслип

О фильме:
Шестнадцатилетняя Мэнди Лэйн — ангел во плоти. В неё безнадёжно влюблены все мужчины и юноши маленького городка в штате Техас. Когда обычно предпочитающая затворничество чаровница неохотно соглашается сопровождать новых друзей, чтобы вместе провести выходные, никто не мог предугадать, чем закончится эта поездка, сдобренная алкоголем, наркотиками и буйным подростковым темпераментом.




Страна: США
Студия: Occupant Films
Продолжительность: 01:30:18
Перевод: Профессиональный (двухголосый, закадровый)

Формат: MKV
Качество: BDRemux 1080p
Видео: MPEG4/AVC/H.264 / 1920x1080 / 27.8 Mbps / 24 fps
Звук:
Russian: DD Audio / 5.1 / 48 kHz / 448 kbps - Двухголосый
English: DTS-HD MA / 5.1 / 48 kHz / 1920 kbps - Оригинал

MediaInfo
Format : Matroska
Format version : Version 4 / Version 2
File size : 19.0 GiB
Duration : 1 h 30 min
Overall bit rate mode : Variable
Overall bit rate : 30.2 Mb/s
Movie name : All the Boys Love Mandy Lane | BDRemux 1080p от =Ved-Uk=
Encoded date : UTC 2019-06-12 03:57:19
Writing application : mkvmerge v22.0.0 ('At The End Of The World') 64-bit
Writing library : libebml v1.3.5 + libmatroska v1.4.8

Video
ID : 1
Format : AVC
Format/Info : Advanced Video Codec
Format profile : High@L4.1
Format settings, CABAC : Yes
Format settings, RefFrames : 4 frames
Format settings, GOP : M=3, N=12
Codec ID : V_MPEG4/ISO/AVC
Duration : 1 h 30 min
Bit rate mode : Variable
Bit rate : 27.8 Mb/s
Maximum bit rate : 33.0 Mb/s
Width : 1 920 pixels
Height : 1 080 pixels
Display aspect ratio : 16:9
Frame rate mode : Constant
Frame rate : 24.000 FPS
Color space : YUV
Chroma subsampling : 4:2:0
Bit depth : 8 bits
Scan type : Progressive
Bits/(Pixel*Frame) : 0.558
Stream size : 17.5 GiB (92%)
Title : Все парни любят Мэнди Лейн
Language : English
Default : Yes
Forced : No
Color range : Limited
Color primaries : BT.709
Transfer characteristics : BT.709
Matrix coefficients : BT.709

Audio #1
ID : 2
Format : AC-3
Format/Info : Audio Coding 3
Format settings, Endianness : Big
Codec ID : A_AC3
Duration : 1 h 30 min
Bit rate mode : Constant
Bit rate : 448 kb/s
Channel(s) : 6 channels
Channel positions : Front: L C R, Side: L R, LFE
Sampling rate : 48.0 kHz
Frame rate : 31.250 FPS (1536 SPF)
Bit depth : 16 bits
Compression mode : Lossy
Stream size : 289 MiB (1%)
Title : Профессиональный двухголосый
Language : Russian
Service kind : Complete Main
Default : Yes
Forced : No

Audio #2
ID : 3
Format : DTS
Format/Info : Digital Theater Systems
Format profile : MA / Core
Mode : 16
Format settings, Endianness : Big
Codec ID : A_DTS
Duration : 1 h 30 min
Bit rate mode : Variable / Constant
Bit rate : 1 920 kb/s / 1 509 kb/s
Channel(s) : 6 channels
Channel positions : Front: L C R, Side: L R, LFE
Sampling rate : 48.0 kHz
Frame rate : 93.750 FPS (512 SPF)
Bit depth : 16 bits
Compression mode : Lossless / Lossy
Stream size : 1.22 GiB (6%)
Title : Оригинал
Language : English
Default : No
Forced : No

Menu
00:00:00.000 : :Chapter 01
00:08:47.416 : :Chapter 02
00:14:47.541 : :Chapter 03
00:23:01.708 : :Chapter 04
00:29:07.916 : :Chapter 05
00:36:33.416 : :Chapter 06
00:44:26.791 : :Chapter 07
00:50:00.666 : :Chapter 08
00:57:53.583 : :Chapter 09
01:07:42.833 : :Chapter 10
01:18:13.500 : :Chapter 11
01:25:32.208 : :Chapter 12
01:30:17.958 : :Chapter 13
Скриншоты
 

Вложения

  • 96,1 KB Просмотры: 1
    Личеров 0
    Сидеров 0
    Файлов 1
    Объем 19 GB

Привет!

Мы группа людей которые решили помочь другим в решении их проблем, а так же пользователям с поиском самых свежих и качественных инфопродуктов. За 4 с небольшим месяца мы создали этот форум на который заходят ежедневно тысячи человек и посещаемость постоянно растёт. Мы создали панель лицензирования для защиты PHP скриптов от воровства и SEO панель для мониторинга наших сайтов и выбора верной стратегии их развития. Мы надеемся что то что мы создали пригодится Вам и возможно Вы поможете нам развиваться и совершенствоваться вместе с Вами.

Статистика форума

Темы
404.549
Сообщения
461.463
Пользователи
80.099
Новый пользователь
анатолий1236

Приложения форума для iOS и Android


У ркн там нет власти ;)
Приватные разговоры
Помощь Пользователи
    Вы не присоединились ни к одной комнате.