За последнюю неделю опубликовано 31 новых материалов.
Инструкция новичку Путеводитель по форуму Прокси для Telegram Показать подсказки , это бомба!

Скачать Все без ума от Мэри / There's Something About Mary (1998) BDRip 720p от HQ-ViDEO | Theatrical Cut бесплатно через торрент

  • Поучаствуй (в качестве покупателя) в любых пяти совместных покупках (кроме завершённых и "Моментальных") и получи группу "Новичок" навсегда -> ссылка на раздел
  • Получай до 480 рублей за каждого приглашенного пользователя!
    представляем Вам очередное расширение партнерской программы, подробности описаны тут -> ссылка
  • 90% материалов доступно к скачиванию после простой регистрации!
    Если же ты хочешь скачивать материалы без требования оставлять отзывы то получи группу "Новичок", 10 способов повышения описаны тут -> ссылка
  • К сожалению количество битых ссылок растет и мы уже не можем их оперативно восстанавливать поэтому просим помощи у каждого нашего пользователя.
    С сегодняшнего дня, за каждую восстановленную ссылку мы заплатим Вам.
    Подробнее тут -> ссылка
  • Перенесем твои заслуги с другого ресурса!
    Мы понимаем как сложно прокачивать аккаунты на форумах, вроде раскачал аккаунт, а тут появляется ресурс в 100 раз круче но тоже с системой прокачки и снова качать аккаунт...
    Предлагаем вам перенести Ваши заслуги на другом подобном ресурсе к нам.
    Подробности описаны тут -> ссылка
  • Вы можете получать по 2.5% с каждой покупки и продажи на маркете! Подробности в теме Партнёрская программа
Если Вы не хотите скачивать, Вы всегда можетепосмотретьонлайн, просто нажмите кнопку ниже :

Открыть плеер

Torrent_Bot

Торрент-Бот
Бот форума
4 Окт 2016
122
127
20

Все без ума от Мэри / There's Something About Mary (Theatrical Cut) (1998) BDRip [720p]
Релиз отHQ-ViDEO


Информация о фильме
Название: Все без ума от Мэри
Оригинальное название: There's Something About Mary
Год выхода: 1998
Жанр: Мелодрама, Комедия
Режиссер: Бобби Фаррелли /Bobby Farrelly/, Питер Фаррелли /Peter Farrelly/
В ролях: Кэмерон Диаз /Cameron Diaz/, Бен Стиллер /Ben Stiller/, Мэтт Диллон /Matt Dillon/, Ли Эванс /Lee Evans/, Крис Эллиот /Chris Elliott/, Лин Шэй /Lin Shaye/, Джефри Тэмбор /Jeffrey Tambor/, Марки Пост /Markie Post/, Кит Дэвид /Keith David/, У. Эрл Браун /W. Earl Brown/, ...

О фильме: Все началось 13 лет назад с ущемленного «достоинства» Теда, хронического неудачника, постоянно ставящего себя в комические ситуации: он настолько труслив, что способен вывести из себя собственного психиатра, настолько нелеп, что способен в самый ответственный момент прищемить свое мужское достоинство брючной молнией.

Этому недотепе не особенно везет в жизни, но зато однажды повезло в любви: когда ему было 17, он встретил Мэри. Они собирались на школьную вечеринку, но тут как раз и произошел неприятный случай с молнией, положивший конец их роману.

И вот, спустя 13 лет, Тед нанимает частного детектива Пэта для розыска женщины своей мечты. Мэри обладает фантастическим даром очаровывать всех окружающих ее мужчин. Ее шарм и обаяние заставляют их бросаться в бескомпромиссную борьбу за сердце красавицы...




Страна: США
Студия: Twentieth Century Fox Film Corporation
Продолжительность: 01:59:05
Перевод: Авторский перевод Санаев + Русский дублированный (6ch, 384 kbps, Отдельно) + Английская дорожка (6ch, 384 kbps, Отдельно).

Файл
Кодек: MKV, H.264 codec
Качество: BDRip [720p] (Исходник: Blu-ray Disc)
Видео: 1 280 x 692 (1.85:0), 23.976 fps, MKV, H.264 codec ~ 4 764 kbps avg, 0.224 bit/pixel
Звук: 48 kHz, AC3 Dolby Digital, 3/2 (L,C,R,l,r) + LFE ch, ~384.00 kbps avg
Субтитры: Русские (2 вида), Английские.


MediaInfo
General
Complete name : Vse.Bez.Uma.Ot.Meri.1998.RUS.BDRip.720p.h264.AC3.-HQ-ViDEO.mkv
Format : Matroska
File size : 4.37 GiB
Duration : 1h 59mn
Overall bit rate : 5 252 Kbps
Movie name : There's Something About Mary (1998)
Encoded date : UTC 2011-05-18 08:02:49
Writing application : mkvmerge v3.3.0 ('Language') built on Mar 24 2010 14:59:24
Writing library : libebml v0.8.0 + libmatroska v0.9.0

Video
ID : 1
Format : AVC
Format/Info : Advanced Video Codec
Format profile : [email protected]
Format settings, CABAC : Yes
Format settings, ReFrames : 6 frames
Codec ID : V_MPEG4/ISO/AVC
Duration : 1h 59mn
Bit rate mode : Variable
Bit rate : 4 764 Kbps
Width : 1 280 pixels
Height : 692 pixels
Display aspect ratio : 1.850
Frame rate : 23.976 fps
Color space : YUV
Chroma subsampling : 4:2:0
Bit depth : 8 bits
Scan type : Progressive
Bits/(Pixel*Frame) : 0.224
Stream size : 3.96 GiB (91%)
Title : Encoded by GYN

Audio
ID : 2
Format : AC-3
Format/Info : Audio Coding 3
Mode extension : CM (complete main)
Codec ID : A_AC3
Duration : 1h 59mn
Bit rate mode : Constant
Bit rate : 384 Kbps
Channel(s) : 6 channels
Channel positions : Front: L C R, Side: L R, LFE
Sampling rate : 48.0 KHz
Bit depth : 16 bits
Compression mode : Lossy
Stream size : 327 MiB (7%)
Title : AVO [Sanaev]
Language : Russian

Text #1
ID : 3
Format : UTF-8
Codec ID : S_TEXT/UTF8
Codec ID/Info : UTF-8 Plain Text
Title : #1
Language : Russian

Text #2
ID : 4
Format : UTF-8
Codec ID : S_TEXT/UTF8
Codec ID/Info : UTF-8 Plain Text
Title : #2
Language : Russian

Text #3
ID : 5
Format : UTF-8
Codec ID : S_TEXT/UTF8
Codec ID/Info : UTF-8 Plain Text
Language : English


Скриншоты для оценки качества (превью - увеличение по клику):



Автор рипа:GYN

Релиз:
 

Вложения

  • 26,3 KB Просмотры: 0
    Личеров 0
    Сидеров 0
    Файлов 3
    Объем 5 GB

Привет!

Мы группа людей которые решили помочь другим в решении их проблем, а так же пользователям с поиском самых свежих и качественных инфопродуктов. За 4 с небольшим месяца мы создали этот форум на который заходят ежедневно тысячи человек и посещаемость постоянно растёт. Мы создали панель лицензирования для защиты PHP скриптов от воровства и SEO панель для мониторинга наших сайтов и выбора верной стратегии их развития. Мы надеемся что то что мы создали пригодится Вам и возможно Вы поможете нам развиваться и совершенствоваться вместе с Вами.

Статистика форума

Темы
385.368
Сообщения
432.166
Пользователи
66.594
Новый пользователь
fanchelsea505

Приложения форума для iOS и Android


У ркн там нет власти ;)
Приватные разговоры
Помощь Пользователи
    Вы не присоединились ни к одной комнате.