За последнюю неделю опубликовано 177 новых материалов.
Инструкция новичку Путеводитель по форуму Прокси для Telegram Показать подсказки , это бомба!

Скачать Время женщин (2018) WEB-DLRip-AVC от Files-x | iTunes бесплатно через торрент

  • Поучаствуй (в качестве покупателя) в любых пяти совместных покупках (кроме завершённых и "Моментальных") и получи группу "Новичок" навсегда -> ссылка на раздел
  • Получай до 480 рублей за каждого приглашенного пользователя!
    представляем Вам очередное расширение партнерской программы, подробности описаны тут -> ссылка
  • 90% материалов доступно к скачиванию после простой регистрации!
    Если же ты хочешь скачивать материалы без требования оставлять отзывы то получи группу "Новичок", 10 способов повышения описаны тут -> ссылка
  • К сожалению количество битых ссылок растет и мы уже не можем их оперативно восстанавливать поэтому просим помощи у каждого нашего пользователя.
    С сегодняшнего дня, за каждую восстановленную ссылку мы заплатим Вам.
    Подробнее тут -> ссылка
  • Перенесем твои заслуги с другого ресурса!
    Мы понимаем как сложно прокачивать аккаунты на форумах, вроде раскачал аккаунт, а тут появляется ресурс в 100 раз круче но тоже с системой прокачки и снова качать аккаунт...
    Предлагаем вам перенести Ваши заслуги на другом подобном ресурсе к нам.
    Подробности описаны тут -> ссылка
  • Вы можете получать по 2.5% с каждой покупки и продажи на маркете! Подробности в теме Партнёрская программа
Если Вы не хотите скачивать, Вы всегда можетепосмотретьонлайн, просто нажмите кнопку ниже :

Открыть плеер

Torrent_Bot

Торрент-Бот
Бот форума
4 Окт 2016
124
94
20



Информация о фильме
Оригинальное название: Время женщин
Год выхода: 2018
Жанр: мелодрама
Режиссер: Андрей Троицкий, Владимир Мирзоев, Инна Щербань
В ролях: Полина Ауг, Макар Запорожский, Евгений Цыганов, Евгения Соляных, Надежда Игошина, Анна Нахапетова, Денис Клявер

О фильме: Мира — деревенская девушка — загадывает жениха. Вскоре в их доме на ночлег остается офицер, а через время выясняется, что девушка беременна. Перед Мирой встает вопрос — считать это случаем или судьбой, сохранить или уничтожить ребенка. Русская смерть — Валя мечтала жить в Венеции, продала московскую квартиру, уехала. Младшая, Надежда, осталась одна, на даче. Через пару лет, разочаровавшись в Венеции, Валя вернулась. Теперь, «так по-чеховски», обе сестры живут в доме с мезонином, это одиночество вдвоем. Они застряли между прошлым и будущим. За воротами — пугающая и непонятная повседневность, в которую «каждый раз выходишь, как в Одиссею». Однажды в доме появляется Алексей — зрелый мужчина с интеллигентным лицом. Его подцепила Надя, но и Валентине он нравится. Классический любовный треугольник? Нет, у наших сестер на Алексея совсем другие планы… Вера, балерина Большого театра вышла на пенсию. Протанцевав в кордебалете 20 лет, так и не успела создать семью, не родила ребенка. Чтобы на что-то жить устроилась в отель преподавать йогу. Поклонников было много, но она влюбилась в женатого и не совсем порядочного мужчину. Каждый день Верки похож на предыдущий. Так бы и жила, если бы однажды в их город не приехал экспериментальный испанский театр «Фламенко» с балетом «Кармен».



Страна: Россия
Студия: Компания "Vega Film"
Продолжительность: 01:22:16

Файл
Кодек: h.264
Качество: WEB-DLRip-AVC
Видео: MPEG-4 AVC, ~ 2340 Кбит/с, 1024x432, 25 кадр/с
Аудио: AC3, 2 ch, 192 Кбит/с
Язык: Русский [iTunes]
Cубтитры: нет


Скриншоты:



MediaInfo
General
Unique ID : 201535831493642179046624613917514744582 (0x979E63A776F6B43DBC3ABAC37B134306)
Complete name : F:Время женщин.(2018).WEB-DLRip.(AVC).by.Серый1779.Files-x.mkv
Format : Matroska
Format version : Version 2
File size : 1.46 GiB
Duration : 1 h 22 min
Overall bit rate : 2 532 kb/s
Encoded date : UTC 2019-12-06 07:52:10
Writing application : mkvmerge v7.8.0 ('River Man') 32bit built on Apr 3 2015 12:11:22
Writing library : libebml v1.3.1 + libmatroska v1.4.2

Video
ID : 1
Format : AVC
Format/Info : Advanced Video Codec
Format profile : High@L4.1
Format settings : CABAC / 10 Ref Frames
Format settings, CABAC : Yes
Format settings, RefFrames : 10 frames
Codec ID : V_MPEG4/ISO/AVC
Duration : 1 h 22 min
Bit rate : 2 340 kb/s
Width : 1 024 pixels
Height : 432 pixels
Display aspect ratio : 2.40:1
Frame rate mode : Constant
Frame rate : 25.000 FPS
Color space : YUV
Chroma subsampling : 4:2:0
Bit depth : 8 bits
Scan type : Progressive
Bits/(Pixel*Frame) : 0.212
Stream size : 1.32 GiB (90%)
Writing library : x264 core 146 r2538 121396c
Encoding settings : cabac=1 / ref=10 / deblock=1:-2:-1 / analyse=0x3:0x133 / me=umh / subme=11 / psy=1 / psy_rd=1.00:0.08 / mixed_ref=1 / me_range=32 / chroma_me=1 / trellis=2 / 8x8dct=1 / cqm=0 / deadzone=21,11 / fast_pskip=0 / chroma_qp_offset=-3 / threads=18 / lookahead_threads=3 / sliced_threads=0 / nr=0 / decimate=1 / interlaced=0 / bluray_compat=0 / constrained_intra=0 / bframes=11 / b_pyramid=2 / b_adapt=2 / b_bias=0 / direct=1 / weightb=1 / open_gop=0 / weightp=2 / keyint=250 / keyint_min=25 / scenecut=40 / intra_refresh=0 / rc=2pass / mbtree=0 / bitrate=2340 / ratetol=1.0 / qcomp=0.60 / qpmin=0 / qpmax=69 / qpstep=4 / cplxblur=20.0 / qblur=0.5 / ip_ratio=1.40 / pb_ratio=1.30 / aq=2:1.00
Default : Yes
Forced : No
Color range : Limited
Color primaries : BT.709
Transfer characteristics : BT.709
Matrix coefficients : BT.709

Audio
ID : 2
Format : AC-3
Format/Info : Audio Coding 3
Format settings, Endianness : Big
Codec ID : A_AC3
Duration : 1 h 22 min
Bit rate mode : Constant
Bit rate : 192 kb/s
Channel(s) : 2 channels
Channel positions : Front: L R
Sampling rate : 48.0 kHz
Frame rate : 31.250 FPS (1536 SPF)
Bit depth : 16 bits
Compression mode : Lossy
Stream size : 113 MiB (8%)
Service kind : Complete Main
Default : Yes
Forced : No

Релиз от:
 

Вложения

  • 15,5 KB Просмотры: 0
    Личеров 0
    Сидеров 0
    Файлов 1
    Объем 1,5 GB
Ваш e-mail не будет опубликован. Он потребуется для подтверждения Вашего поста.
Оформление текста Нажмите «Ввод», чтобы отправить ответ.

Привет!

Мы группа людей которые решили помочь другим в решении их проблем, а так же пользователям с поиском самых свежих и качественных инфопродуктов. За 4 с небольшим месяца мы создали этот форум на который заходят ежедневно тысячи человек и посещаемость постоянно растёт. Мы создали панель лицензирования для защиты PHP скриптов от воровства и SEO панель для мониторинга наших сайтов и выбора верной стратегии их развития. Мы надеемся что то что мы создали пригодится Вам и возможно Вы поможете нам развиваться и совершенствоваться вместе с Вами.

Статистика форума

Темы
378.741
Сообщения
417.998
Пользователи
49.616
Новый пользователь
art_137

Приложения форума для iOS и Android


У ркн там нет власти ;)
Приватные разговоры
Помощь Пользователи
    Вы не присоединились ни к одной комнате.