За последнюю неделю опубликовано 50 новых материалов.
Инструкция новичку Путеводитель по форуму Прокси для Telegram Показать подсказки , это бомба!

Скачать Время развлечений / Playtime (1967) BDRip 1080p | Remastered | P2 бесплатно через торрент

  • Поучаствуй (в качестве покупателя) в любых пяти совместных покупках (кроме завершённых и "Моментальных") и получи группу "Новичок" навсегда -> ссылка на раздел
  • Получай до 480 рублей за каждого приглашенного пользователя!
    представляем Вам очередное расширение партнерской программы, подробности описаны тут -> ссылка
  • 90% материалов доступно к скачиванию после простой регистрации!
    Если же ты хочешь скачивать материалы без требования оставлять отзывы то получи группу "Новичок", 10 способов повышения описаны тут -> ссылка
  • К сожалению количество битых ссылок растет и мы уже не можем их оперативно восстанавливать поэтому просим помощи у каждого нашего пользователя.
    С сегодняшнего дня, за каждую восстановленную ссылку мы заплатим Вам.
    Подробнее тут -> ссылка
  • Перенесем твои заслуги с другого ресурса!
    Мы понимаем как сложно прокачивать аккаунты на форумах, вроде раскачал аккаунт, а тут появляется ресурс в 100 раз круче но тоже с системой прокачки и снова качать аккаунт...
    Предлагаем вам перенести Ваши заслуги на другом подобном ресурсе к нам.
    Подробности описаны тут -> ссылка
  • Вы можете получать по 2.5% с каждой покупки и продажи на маркете! Подробности в теме Партнёрская программа
Если Вы не хотите скачивать, Вы всегда можетепосмотретьонлайн, просто нажмите кнопку ниже :

Открыть плеер

Torrent_Bot

Торрент-Бот
Бот форума
4 Окт 2016
93
160
20


Информация о фильме
Название: Время развлечений
Оригинальное название: Playtime
Год выхода: 1967
Жанр: Комедия
Режиссер: Жак Тати
В ролях: Жак Тати, Барбара Деннек, Рита Мэйден, Франс Румилли, Франс Делахаль, Валери Камилль, Эрика Денцлер, Николь Рэй, Ивет Дюкрё, Натали Джем

О фильме:
Юло теряется в парижском аэропорту и встречает группу американских туристов, которые тоже толком не знают, что делать. После чего все они отправляются в путешествие по Парижу, который оказывается городом небоскребов и лабиринтов.




Страна: Франция, Италия
Студия: Jolly Film, Specta Films
Продолжительность: 02:04:06
Перевод: Профессиональный двухголосый | по заказу компании «Екатеринбург АРТ»

Файл
Кодек: x.264
Качество: BDRip 1080p | Playtime.1967.REMASTERED.1080p.BluRay.x264-SADPANDA
Видео: MPEG-4 AVC, 10.9 Mбит/с, 1920x1080, 23.976 кадр/с
Аудио #1: Русский (АС3, 2 ch, 224 Кбит/с, 48.0 KHz) Профессиональный (двухголосый, закадровый)
Аудио #2: Французский (АС3, 3 ch, 384 Кбит/с, 48.0 KHz)
Аудио #3: Английский (АС3, 2 ch, 224 Кбит/с, 48.0 KHz)
Субтитры: Русские, английские
Трейлер
MediaInfo
Источник: Playtime.1967.REMASTERED.1080p.BluRay.x264-SADPANDA
General
Unique ID : 241666650910866404593952186532677135220 (0xB5CF4DCFFD092D1193D90A3B2D45AB74)
Complete name : Playtime.1967.Remastered.BDRip.1080p.mkv
Format : Matroska
Format version : Version 4
File size : 10.2 GiB
Duration : 2 h 4 min
Overall bit rate : 11.7 Mb/s
Encoded date : UTC 2018-07-31 23:12:50
Writing application : mkvmerge v7.1.0 ('Good Love') 64bit built on Jul 27 2014 13:06:55
Writing library : libebml v1.3.0 + libmatroska v1.4.1

Video
ID : 1
Format : AVC
Format/Info : Advanced Video Codec
Format profile : [email protected]
Format settings : CABAC / 4 Ref Frames
Format settings, CABAC : Yes
Format settings, Reference fra : 4 frames
Codec ID : V_MPEG4/ISO/AVC
Duration : 2 h 4 min
Bit rate : 10.9 Mb/s
Width : 1 920 pixels
Height : 1 080 pixels
Display aspect ratio : 16:9
Frame rate mode : Constant
Frame rate : 23.976 (24000/1001) FPS
Color space : YUV
Chroma subsampling : 4:2:0
Bit depth : 8 bits
Scan type : Progressive
Bits/(Pixel*Frame) : 0.219
Stream size : 9.45 GiB (93%)
Writing library : x264 core 148 r2638 7599210
Encoding settings : cabac=1 / ref=4 / deblock=1:0:0 / analyse=0x3:0x113 / me=umh / subme=8 / psy=1 / psy_rd=1.00:0.00 / mixed_ref=1 / me_range=16 / chroma_me=1 / trellis=1 / 8x8dct=1 / cqm=0 / deadzone=21,11 / fast_pskip=1 / chroma_qp_offset=-2 / threads=12 / lookahead_threads=2 / sliced_threads=0 / nr=0 / decimate=1 / interlaced=0 / bluray_compat=0 / constrained_intra=0 / bframes=3 / b_pyramid=2 / b_adapt=2 / b_bias=0 / direct=3 / weightb=1 / open_gop=0 / weightp=2 / keyint=240 / keyint_min=24 / scenecut=40 / intra_refresh=0 / rc_lookahead=50 / rc=2pass / mbtree=1 / bitrate=10899 / ratetol=1.0 / qcomp=0.60 / qpmin=0 / qpmax=69 / qpstep=4 / cplxblur=20.0 / qblur=0.5 / vbv_maxrate=62500 / vbv_bufsize=78125 / nal_hrd=none / filler=0 / ip_ratio=1.40 / aq=1:1.00
Default : Yes
Forced : No
Color range : Limited
Matrix coefficients : BT.709

Audio #1
ID : 2
Format : AC-3
Format/Info : Audio Coding 3
Commercial name : Dolby Digital
Codec ID : A_AC3
Duration : 2 h 4 min
Bit rate mode : Constant
Bit rate : 224 kb/s
Channel(s) : 2 channels
Channel layout : L R
Sampling rate : 48.0 kHz
Frame rate : 31.250 FPS (1536 SPF)
Compression mode : Lossy
Stream size : 199 MiB (2%)
Language : Russian
Service kind : Complete Main
Default : Yes
Forced : No

Audio #2
ID : 3
Format : AC-3
Format/Info : Audio Coding 3
Commercial name : Dolby Digital
Codec ID : A_AC3
Duration : 2 h 4 min
Bit rate mode : Constant
Bit rate : 384 kb/s
Channel(s) : 3 channels
Channel layout : L R Cb
Sampling rate : 48.0 kHz
Frame rate : 31.250 FPS (1536 SPF)
Compression mode : Lossy
Stream size : 341 MiB (3%)
Language : French
Service kind : Complete Main
Default : No
Forced : No

Audio #3
ID : 4
Format : AC-3
Format/Info : Audio Coding 3
Commercial name : Dolby Digital
Codec ID : A_AC3
Duration : 2 h 4 min
Bit rate mode : Constant
Bit rate : 224 kb/s
Channel(s) : 2 channels
Channel layout : L R
Sampling rate : 48.0 kHz
Frame rate : 31.250 FPS (1536 SPF)
Compression mode : Lossy
Stream size : 199 MiB (2%)
Language : English
Service kind : Complete Main
Default : No
Forced : No

Text #1
ID : 5
Format : UTF-8
Codec ID : S_TEXT/UTF8
Codec ID/Info : UTF-8 Plain Text
Duration : 2 h 0 min
Bit rate : 39 b/s
Count of elements : 699
Stream size : 34.5 KiB (0%)
Language : Russian
Default : No
Forced : No

Text #2
ID : 6
Format : UTF-8
Codec ID : S_TEXT/UTF8
Codec ID/Info : UTF-8 Plain Text
Duration : 2 h 0 min
Bit rate : 13 b/s
Count of elements : 458
Stream size : 12.3 KiB (0%)
Language : English
Default : No
Forced : No

Menu
00:00:00.000 : en:00:00:00.000
00:06:23.675 : en:00:06:23.675
00:09:26.024 : en:00:09:26.024
00:12:44.681 : en:00:12:44.681
00:16:27.945 : en:00:16:27.945
00:21:14.815 : en:00:21:14.815
00:29:55.002 : en:00:29:55.002
00:32:54.556 : en:00:32:54.556
00:37:22.532 : en:00:37:22.532
00:42:03.312 : en:00:42:03.312
00:47:40.941 : en:00:47:40.941
00:58:01.019 : en:00:58:01.019
01:00:36.132 : en:01:00:36.132
01:03:55.457 : en:01:03:55.457
01:07:51.776 : en:01:07:51.776
01:14:23.709 : en:01:14:23.709
01:20:15.144 : en:01:20:15.144
01:25:08.770 : en:01:25:08.770
01:29:06.925 : en:01:29:06.925
01:34:58.735 : en:01:34:58.735
01:41:24.578 : en:01:41:24.578
01:51:06.285 : en:01:51:06.285
01:55:51.111 : en:01:55:51.111
Скриншоты
 

Вложения

  • 26,3 KB Просмотры: 0
    Личеров 0
    Сидеров 0
    Файлов 1
    Объем 10,2 GB

Привет!

Мы группа людей которые решили помочь другим в решении их проблем, а так же пользователям с поиском самых свежих и качественных инфопродуктов. За 4 с небольшим месяца мы создали этот форум на который заходят ежедневно тысячи человек и посещаемость постоянно растёт. Мы создали панель лицензирования для защиты PHP скриптов от воровства и SEO панель для мониторинга наших сайтов и выбора верной стратегии их развития. Мы надеемся что то что мы создали пригодится Вам и возможно Вы поможете нам развиваться и совершенствоваться вместе с Вами.

Статистика форума

Темы
406.640
Сообщения
465.115
Пользователи
84.567
Новый пользователь
qawsedrft

Приложения форума для iOS и Android


У ркн там нет власти ;)
Приватные разговоры
Помощь Пользователи
    Вы не присоединились ни к одной комнате.