За последнюю неделю опубликовано 57 новых материалов.
Инструкция новичку Путеводитель по форуму Прокси для Telegram Показать подсказки , это бомба!

Скачать Временная петля / Los cronocrimenes (2007) HDRip-AVC | P2 бесплатно через торрент

  • Поучаствуй (в качестве покупателя) в любых пяти совместных покупках (кроме завершённых и "Моментальных") и получи группу "Новичок" навсегда -> ссылка на раздел
  • Получай до 480 рублей за каждого приглашенного пользователя!
    представляем Вам очередное расширение партнерской программы, подробности описаны тут -> ссылка
  • 90% материалов доступно к скачиванию после простой регистрации!
    Если же ты хочешь скачивать материалы без требования оставлять отзывы то получи группу "Новичок", 10 способов повышения описаны тут -> ссылка
  • К сожалению количество битых ссылок растет и мы уже не можем их оперативно восстанавливать поэтому просим помощи у каждого нашего пользователя.
    С сегодняшнего дня, за каждую восстановленную ссылку мы заплатим Вам.
    Подробнее тут -> ссылка
  • Перенесем твои заслуги с другого ресурса!
    Мы понимаем как сложно прокачивать аккаунты на форумах, вроде раскачал аккаунт, а тут появляется ресурс в 100 раз круче но тоже с системой прокачки и снова качать аккаунт...
    Предлагаем вам перенести Ваши заслуги на другом подобном ресурсе к нам.
    Подробности описаны тут -> ссылка
  • Вы можете получать по 2.5% с каждой покупки и продажи на маркете! Подробности в теме Партнёрская программа
Если Вы не хотите скачивать, Вы всегда можетепосмотретьонлайн, просто нажмите кнопку ниже :

Открыть плеер

Torrent_Bot

Торрент-Бот
Бот форума
4 Окт 2016
92
163
20



Информация о фильме
Название: Временная петля
Оригинальное название: Los cronocrimenes / Timecrimes
Год выхода: 2007
Жанр: фантастика, триллер, драма, детектив
Режиссер: Начо Вигалондо / Nacho Vigalondo
В ролях: Карра Элехальде, Кандела Фернандез, Барбара Гоэнага, Начо Вигалондо, Джуан Инкиарте, Miguel Angel Poo, Либби Брайан, Николь Дайонн, Филип Херш

О фильме:
Гектор - самый обычный человек, вполне довольный своей жизнью: любящая жена, дом за городом. В один из вечеров внимание Гектора привлекает мелькнувшая в лесу полуобнаженная девушка и движимый любопытством, мужчина отправляется разведать, что же там такое происходит. В лесу он сталкивается с человеком, чье лицо скрыто окровавленными бинтами. Скрываясь от преследования незнакомца, Гектор случайно попадает в машину времени...



Страна: Испания
Продолжительность: 01:32:14
Перевод:: Профессиональный закадровый (двухголосый) НТВ+
Субтитры: Русские, английские

Файл
Формат: Matroska
Качество: HDRip-AVC
Видео: 736x398 at 23.976 fps, [email protected], ~1063 kbps, 0.151 bpp
Аудио: AAC, 2 ch, ~64 kbps - | Русский | -
Формат субтитров: softsub (SRT)

***Релиз от:-=DoMiNo=-

M/I
x264 [info]: frame I:826 Avg QP:17.65 size: 29701
x264 [info]: frame P:29395 Avg QP:19.54 size: 11918
x264 [info]: frame B:102469 Avg QP:21.54 size: 3421
x264 [info]: consecutive B-frames: 2.9% 3.4% 7.9% 16.3% 18.1% 37.0% 5.4% 3.3% 1.8% 0.9% 0.4% 0.7% 0.4% 0.3% 0.2%

General
Format : Matroska
Format version : Version 4
File size : 743 MiB
Duration : 1 h 32 min
Overall bit rate : 1 125 kb/s
Movie name : Временная петля.(2007).HDRip-AVC.[-=DoMiNo=-]
Encoded date : UTC 2020-07-10 12:30:09
Writing application : mkvmerge v48.0.0 ('Fortress Around Your Heart') 64-bit
Writing library : libebml v1.4.0 + libmatroska v1.6.0
Cover : Yes
Attachments : Cover.jpg / Cover 2.jpg

Video
ID : 1
Format : AVC
Format/Info : Advanced Video Codec
Format profile : [email protected]
Format settings : CABAC / 15 Ref Frames
Format settings, CABAC : Yes
Format settings, Reference : 15 frames
Codec ID : V_MPEG4/ISO/AVC
Duration : 1 h 32 min
Bit rate : 1 063 kb/s
Width : 736 pixels
Height : 398 pixels
Display aspect ratio : 1.85:1
Frame rate mode : Constant
Frame rate : 23.976 (24000/1001) FPS
Color space : YUV
Chroma subsampling : 4:2:0
Bit depth : 8 bits
Scan type : Progressive
Bits/(Pixel*Frame) : 0.151
Stream size : 700 MiB (94%)
Title : -=DoMiNo=-
Writing library : x264 core 161 r3015 4c2aafd
Encoding settings : cabac=1 / ref=15 / deblock=1:-3:-3 / analyse=0x3:0x133 / me=umh / subme=11 / psy=1 / psy_rd=1.00:0.00 / mixed_ref=1 / me_range=32 / chroma_me=1 / trellis=2 / 8x8dct=1 / cqm=0 / deadzone=21,11 / fast_pskip=0 / chroma_qp_offset=-2 / threads=6 / lookahead_threads=1 / sliced_threads=0 / nr=0 / decimate=0 / interlaced=0 / bluray_compat=0 / constrained_intra=0 / bframes=14 / b_pyramid=2 / b_adapt=2 / b_bias=0 / direct=3 / weightb=1 / open_gop=0 / weightp=2 / keyint=250 / keyint_min=23 / scenecut=40 / intra_refresh=0 / rc=2pass / mbtree=0 / bitrate=1063 / ratetol=1.0 / qcomp=0.70 / qpmin=0 / qpmax=69 / qpstep=4 / cplxblur=20.0 / qblur=0.5 / ip_ratio=1.40 / pb_ratio=1.30 / aq=3:1.00
Language : Spanish
Default : Yes
Forced : No
Color range : Limited
Color primaries : BT.709
Transfer characteristics : BT.709
Matrix coefficients : BT.709

Audio
ID : 2
Format : AAC LC SBR
Format/Info : Advanced Audio Codec Low Complexity with Spectral Band Replication
Commercial name : HE-AAC
Format settings : Explicit
Codec ID : A_AAC-2
Duration : 1 h 32 min
Bit rate : 62.7 kb/s
Channel(s) : 2 channels
Channel layout : L R
Sampling rate : 48.0 kHz
Frame rate : 23.438 FPS (2048 SPF)
Compression mode : Lossy
Stream size : 41.4 MiB (6%)
Title : DVO_[НТВ+]
Language : Russian
Default : Yes
Forced : No

Text #1
ID : 3
Format : UTF-8
Codec ID : S_TEXT/UTF8
Codec ID/Info : UTF-8 Plain Text
Duration : 1 h 26 min
Bit rate : 47 b/s
Count of elements : 660
Stream size : 30.3 KiB (0%)
Language : Russian
Default : No
Forced : No

Text #2
ID : 4
Format : UTF-8
Codec ID : S_TEXT/UTF8
Codec ID/Info : UTF-8 Plain Text
Duration : 1 h 26 min
Bit rate : 27 b/s
Count of elements : 665
Stream size : 17.8 KiB (0%)
Language : English
Default : No
Forced : No

Menu
00:00:00.000 : en:00:00:00.000
00:05:33.208 : en:00:05:33.208
00:08:43.106 : en:00:08:43.106
00:13:39.736 : en:00:13:39.736
00:19:33.422 : en:00:19:33.422
00:24:21.752 : en:00:24:21.752
00:35:11.818 : en:00:35:11.818
00:41:40.373 : en:00:41:40.373
00:52:12.713 : en:00:52:12.713
00:58:43.729 : en:00:58:43.729
01:04:01.838 : en:01:04:01.838
01:09:25.036 : en:01:09:25.036
01:12:39.564 : en:01:12:39.564
01:16:18.783 : en:01:16:18.783
01:19:19.129 : en:01:19:19.129
01:28:39.314 : en:01:28:39.314
Скриншоты
 

Вложения

  • 30,1 KB Просмотры: 0
    Личеров 0
    Сидеров 0
    Файлов 1
    Объем 743,1 MB

Привет!

Мы группа людей которые решили помочь другим в решении их проблем, а так же пользователям с поиском самых свежих и качественных инфопродуктов. За 4 с небольшим месяца мы создали этот форум на который заходят ежедневно тысячи человек и посещаемость постоянно растёт. Мы создали панель лицензирования для защиты PHP скриптов от воровства и SEO панель для мониторинга наших сайтов и выбора верной стратегии их развития. Мы надеемся что то что мы создали пригодится Вам и возможно Вы поможете нам развиваться и совершенствоваться вместе с Вами.

Статистика форума

Темы
406.698
Сообщения
465.162
Пользователи
84.789
Новый пользователь
Setis

Приложения форума для iOS и Android


У ркн там нет власти ;)
Приватные разговоры
Помощь Пользователи
    Вы не присоединились ни к одной комнате.