За последнюю неделю опубликовано 47 новых материалов.
Инструкция новичку Путеводитель по форуму Прокси для Telegram Показать подсказки , это бомба!

Скачать Враждебное золото / Enemy Gold (1993) BDRip 1080p | A бесплатно через торрент

  • Поучаствуй (в качестве покупателя) в любых пяти совместных покупках (кроме завершённых и "Моментальных") и получи группу "Новичок" навсегда -> ссылка на раздел
  • Получай до 480 рублей за каждого приглашенного пользователя!
    представляем Вам очередное расширение партнерской программы, подробности описаны тут -> ссылка
  • 90% материалов доступно к скачиванию после простой регистрации!
    Если же ты хочешь скачивать материалы без требования оставлять отзывы то получи группу "Новичок", 10 способов повышения описаны тут -> ссылка
  • К сожалению количество битых ссылок растет и мы уже не можем их оперативно восстанавливать поэтому просим помощи у каждого нашего пользователя.
    С сегодняшнего дня, за каждую восстановленную ссылку мы заплатим Вам.
    Подробнее тут -> ссылка
  • Перенесем твои заслуги с другого ресурса!
    Мы понимаем как сложно прокачивать аккаунты на форумах, вроде раскачал аккаунт, а тут появляется ресурс в 100 раз круче но тоже с системой прокачки и снова качать аккаунт...
    Предлагаем вам перенести Ваши заслуги на другом подобном ресурсе к нам.
    Подробности описаны тут -> ссылка
  • Вы можете получать по 2.5% с каждой покупки и продажи на маркете! Подробности в теме Партнёрская программа
Если Вы не хотите скачивать, Вы всегда можетепосмотретьонлайн, просто нажмите кнопку ниже :

Открыть плеер

Torrent_Bot

Торрент-Бот
Бот форума
4 Окт 2016
93
160
20

Название: Враждебное золото
Оригинальное название: Enemy Gold
Год выхода: 1993

Страна: США, Германия, Япония
Студия: Skyhawks Films, MBP (Germany), Starlight Film
Продолжительность: 01:31:34
Жанр: боевик, криминал

Режиссер: Кристиан Дрю Сидарис
В ролях: Брюс Пенхалл, Марк Барриере, Сьюзи Симпсон, Танкил Лиза Коллинз, Родриго Обрегон, Джули Стрэйн, Алан Эбелью, Том Эбботт, Рон Браунинг, Ким Малин, ....

Перевод: авторский (одноголосый, закадровый) Дольский Андрей Игоревич

О фильме: Крис, Бэки и Марк — спецагенты. Они помешали мафии и их решают убрать. Но это не так просто сделать, когда имеешь дело с профессионалами, да и еще, если среди них есть красивая женщина, способная свести с ума и убить любого…






Кодек: x264
Качество: BDRip 1080p
Видео: 1920x1080, 14000 kbps, 23,976 fps
Аудио #1: AC-3, 2 ch, 192 kbps (Rus) - AVO Дольский Андрей Игоревич
Аудио #2: DTS, 2 ch, 1509 kbps (Eng)
Субтитры: английские
Спасибо за исходник

MediaInfo
x264 [info]: frame I:822 Avg QP:20.30 size:282552
x264 [info]: frame P:26011 Avg QP:22.86 size:114046
x264 [info]: frame B:104893 Avg QP:24.44 size: 61100
x264 [info]: consecutive B-frames: 2.1% 3.1% 6.1% 15.0% 14.5% 29.8% 5.9% 4.2% 4.2% 1.4% 6.0% 4.6% 0.8% 1.2% 1.1%

Общее
Уникальный идентификатор : 230578816552644034334616267014118757851 (0xAD77DD5F35484A11A58BB6FEC90ED5DB)
Полное имя : Враждебное золото (Enemy Gold) 1993 BDRip 1080p.mkv
Формат : Matroska
Версия формата : Version 2
Размер файла : 10,0 Гбайт
Продолжительность : 1 ч. 31 м.
Общий поток : 15,7 Мбит/сек
Дата кодирования : UTC 2020-05-21 12:56:35
Программа кодирования : mkvmerge v4.0.0 ('The Stars were mine') сборка от Jun 6 2010 16:18:42
Библиотека кодирования : libebml v1.0.0 + libmatroska v1.0.0

Видео
Идентификатор : 1
Формат : AVC
Формат/Информация : Advanced Video Codec
Профиль формата : [email protected]
Параметр CABAC формата : Да
Параметр ReFrames формата : 4 кадра
Идентификатор кодека : V_MPEG4/ISO/AVC
Продолжительность : 1 ч. 31 м.
Битрейт : 14,0 Мбит/сек
Ширина : 1920 пикселей
Высота : 1080 пикселей
Соотношение сторон : 16:9
Режим частоты кадров : Постоянный
Частота кадров : 23,976 (24000/1001) кадра/сек
Цветовое пространство : YUV
Субдискретизация насыщенности : 4:2:0
Битовая глубина : 8 бит
Тип развёртки : Прогрессивная
Бит/(Пиксели*Кадры) : 0.282
Размер потока : 8,75 Гбайт (87%)
Библиотека кодирования : x264 core 146 r2538 121396c
Настройки программы : cabac=1 / ref=4 / deblock=1:-1:-1 / analyse=0x3:0x133 / me=umh / subme=11 / psy=1 / psy_rd=1.00:0.00 / mixed_ref=1 / me_range=32 / chroma_me=1 / trellis=2 / 8x8dct=1 / cqm=0 / deadzone=21,11 / fast_pskip=0 / chroma_qp_offset=-2 / threads=12 / lookahead_threads=2 / sliced_threads=0 / nr=0 / decimate=0 / interlaced=0 / bluray_compat=0 / constrained_intra=0 / bframes=14 / b_pyramid=2 / b_adapt=2 / b_bias=0 / direct=3 / weightb=1 / open_gop=0 / weightp=2 / keyint=240 / keyint_min=23 / scenecut=40 / intra_refresh=0 / rc=2pass / mbtree=0 / bitrate=14000 / ratetol=1.0 / qcomp=0.60 / qpmin=0 / qpmax=69 / qpstep=4 / cplxblur=20.0 / qblur=0.5 / ip_ratio=1.40 / pb_ratio=1.30 / aq=2:0.80
Язык : English
Default : Нет
Forced : Нет

Аудио #1
Идентификатор : 2
Формат : AC-3
Формат/Информация : Audio Coding 3
Расширение режима : CM (complete main)
Параметр Endianness формата : Big
Идентификатор кодека : A_AC3
Продолжительность : 1 ч. 31 м.
Вид битрейта : Постоянный
Битрейт : 192 Кбит/сек
Каналы : 2 канала
Расположение каналов : Front: L R
Частота : 48,0 КГц
Частота кадров : 31,250 кадров/сек (1536 spf)
Метод сжатия : С потерями
Задержка видео : 28 мс.
Размер потока : 126 Мбайт (1%)
Заголовок : AVO Дольский Андрей Игоревич
Язык : Russian
Default : Нет
Forced : Нет

Аудио #2
Идентификатор : 3
Формат : DTS
Формат/Информация : Digital Theater Systems
Режим : 16
Параметр Endianness формата : Big
Идентификатор кодека : A_DTS
Продолжительность : 1 ч. 31 м.
Вид битрейта : Постоянный
Битрейт : 1509 Кбит/сек
Каналы : 2 канала
Расположение каналов : Front: L R
Частота : 48,0 КГц
Частота кадров : 93,750 кадра/сек (512 spf)
Битовая глубина : 24 бит
Метод сжатия : С потерями
Размер потока : 988 Мбайт (10%)
Язык : English
Default : Нет
Forced : Нет

Текст
Идентификатор : 4
Формат : UTF-8
Идентификатор кодека : S_TEXT/UTF8
Идентификатор кодека/Информация : UTF-8 Plain Text
Заголовок : SDH
Язык : English
Default : Нет
Forced : Нет

Меню
00:00:00.000 : en:Main Titles
00:07:48.885 : en:Midnight Break-In
00:15:34.850 : en:Agent Cannon Explodes
00:22:39.107 : en:Sunset Striptease
00:32:23.274 : en:They're Playing Our Song
00:38:37.189 : en:No Butts About It!
00:48:52.971 : en:Dead Head Discovery
00:57:52.635 : en:Bad Guy Blowup
01:05:00.897 : en:Shower Spies
01:15:58.262 : en:This Is It!
01:25:56.526 : en:Noble Training
01:29:29.739 : en:End Credits

 

Вложения

  • 51,1 KB Просмотры: 0
    Личеров 0
    Сидеров 0
    Файлов 1
    Объем 10 GB

Привет!

Мы группа людей которые решили помочь другим в решении их проблем, а так же пользователям с поиском самых свежих и качественных инфопродуктов. За 4 с небольшим месяца мы создали этот форум на который заходят ежедневно тысячи человек и посещаемость постоянно растёт. Мы создали панель лицензирования для защиты PHP скриптов от воровства и SEO панель для мониторинга наших сайтов и выбора верной стратегии их развития. Мы надеемся что то что мы создали пригодится Вам и возможно Вы поможете нам развиваться и совершенствоваться вместе с Вами.

Статистика форума

Темы
406.640
Сообщения
465.115
Пользователи
84.582
Новый пользователь
mladshiy

Приложения форума для iOS и Android


У ркн там нет власти ;)
Приватные разговоры
Помощь Пользователи
    Вы не присоединились ни к одной комнате.