За последнюю неделю опубликовано 62 новых материалов.
Инструкция новичку Путеводитель по форуму Прокси для Telegram Показать подсказки , это бомба!

Скачать Враждебное золото / Enemy Gold (1993) BDRemux 1080р | A бесплатно через торрент

  • Поучаствуй (в качестве покупателя) в любых пяти совместных покупках (кроме завершённых и "Моментальных") и получи группу "Новичок" навсегда -> ссылка на раздел
  • Получай до 480 рублей за каждого приглашенного пользователя!
    представляем Вам очередное расширение партнерской программы, подробности описаны тут -> ссылка
  • 90% материалов доступно к скачиванию после простой регистрации!
    Если же ты хочешь скачивать материалы без требования оставлять отзывы то получи группу "Новичок", 10 способов повышения описаны тут -> ссылка
  • К сожалению количество битых ссылок растет и мы уже не можем их оперативно восстанавливать поэтому просим помощи у каждого нашего пользователя.
    С сегодняшнего дня, за каждую восстановленную ссылку мы заплатим Вам.
    Подробнее тут -> ссылка
  • Перенесем твои заслуги с другого ресурса!
    Мы понимаем как сложно прокачивать аккаунты на форумах, вроде раскачал аккаунт, а тут появляется ресурс в 100 раз круче но тоже с системой прокачки и снова качать аккаунт...
    Предлагаем вам перенести Ваши заслуги на другом подобном ресурсе к нам.
    Подробности описаны тут -> ссылка
  • Вы можете получать по 2.5% с каждой покупки и продажи на маркете! Подробности в теме Партнёрская программа
Если Вы не хотите скачивать, Вы всегда можетепосмотретьонлайн, просто нажмите кнопку ниже :

Открыть плеер

Torrent_Bot

Торрент-Бот
Бот форума
4 Окт 2016
92
160
20



Информация о фильме
Название: Враждебное золото
Оригинальное название: Enemy Gold
Год выхода: 1993
Жанр: боевик, криминал
Режиссер: Кристиан Дрю Сидарис
В ролях: Брюс Пенхалл, Марк Барриере, Сьюзи Симпсон, Танкил Лиза Коллинз, Родриго Обрегон, Джули Стрэйн, Алан Эбелью, Том Эбботт, Рон Браунинг, Ким Малин

О фильме:
Крис, Бэки и Марк — спецагенты. Они помешали мафии и их решают убрать. Но это не так просто сделать, когда имеешь дело с профессионалами, да и еще, если среди них есть красивая женщина, способная свести с ума и убить любого…



Страна: США, Германия, Япония
Продолжительность: 01:31:35
Перевод: авторский (одноголосый закадровый) Андрей Дольский
Оригинальная аудиодорожка: английский

Файл
Качество: BDRemux 1080р
Видео: MPEG-4 AVC, 34990 Кбит/с, 1920x1080, 23.976 кадр/c
Аудио 1: AC3, 2 ch, 48.0 KHz, 192 kbps | Андрей Дольский
Аудио 2: DTS-HD MA, 2 ch, 48.0 KHz, 2060 kbps | English
Аудио 3: AC3, 2 ch, 48.0 KHz, 384 kbps | English - Commentary by Andy & Arlene Sidaris
Субтитры: английские (SDH)

Скриншоты
MediaInfo
General
Unique ID : 181398713440942049314873674038786244587 (0x88781F14A7B994349B6A6181269DBFEB)
Complete name : E:Мои рипыВраждебное золото.1993.BDRemux.1080p.R.G. Goldenshara.mkv
Format : Matroska
Format version : Version 4
File size : 24.1 GiB
Duration : 1 h 31 min
Overall bit rate mode : Variable
Overall bit rate : 37.6 Mb/s
Encoded date : UTC 2020-05-13 15:04:25
Writing application : mkvmerge v6.8.0 ('Theme for Great Cities') 64bit built on Mar 2 2014 21:34:26
Writing library : libebml v1.3.0 + libmatroska v1.4.1

Video
ID : 1
Format : AVC
Format/Info : Advanced Video Codec
Format profile : [email protected]
Format settings : CABAC / 4 Ref Frames
Format settings, CABAC : Yes
Format settings, Reference : 4 frames
Codec ID : V_MPEG4/ISO/AVC
Duration : 1 h 31 min
Bit rate mode : Variable
Maximum bit rate : 35.0 Mb/s
Width : 1 920 pixels
Height : 1 080 pixels
Display aspect ratio : 16:9
Frame rate mode : Constant
Frame rate : 23.976 (24000/1001) FPS
Standard : NTSC
Color space : YUV
Chroma subsampling : 4:2:0
Bit depth : 8 bits
Scan type : Progressive
Language : English
Default : Yes
Forced : No
Color range : Limited
Color primaries : BT.709
Transfer characteristics : BT.709
Matrix coefficients : BT.709
Duration_Source : General_Duration

Audio #1
ID : 2
Format : AC-3
Format/Info : Audio Coding 3
Commercial name : Dolby Digital
Codec ID : A_AC3
Duration : 1 h 31 min
Bit rate mode : Constant
Bit rate : 192 kb/s
Channel(s) : 2 channels
Channel layout : L R
Sampling rate : 48.0 kHz
Frame rate : 31.250 FPS (1536 SPF)
Compression mode : Lossy
Delay relative to video : 28 ms
Stream size : 126 MiB (1%)
Title : AVO Андрей Дольский
Language : Russian
Service kind : Complete Main
Default : Yes
Forced : No
Duration_Source : General_Duration

Audio #2
ID : 3
Format : DTS XLL
Format/Info : Digital Theater Systems
Commercial name : DTS-HD Master Audio
Codec ID : A_DTS
Duration : 1 h 31 min
Bit rate mode : Variable
Channel(s) : 2 channels
Channel layout : L R
Sampling rate : 48.0 kHz
Frame rate : 93.750 FPS (512 SPF)
Bit depth : 24 bits
Compression mode : Lossless
Language : English
Default : No
Forced : No
Duration_Source : General_Duration

Audio #3
ID : 4
Format : AC-3
Format/Info : Audio Coding 3
Commercial name : Dolby Digital
Codec ID : A_AC3
Duration : 1 h 31 min
Bit rate mode : Constant
Bit rate : 384 kb/s
Channel(s) : 2 channels
Channel layout : L R
Sampling rate : 48.0 kHz
Frame rate : 31.250 FPS (1536 SPF)
Compression mode : Lossy
Stream size : 252 MiB (1%)
Title : Commentary by Andy & Arlene Sidaris
Language : English
Service kind : Complete Main
Default : No
Forced : No
Duration_Source : General_Duration

Text
ID : 5
Format : UTF-8
Codec ID : S_TEXT/UTF8
Codec ID/Info : UTF-8 Plain Text
Title : SDH
Language : English
Default : No
Forced : No

Menu
00:00:00.000 : en:Main Titles
00:07:48.885 : en:Midnight Break-In
00:15:34.850 : en:Agent Cannon Explodes
00:22:39.107 : en:Sunset Striptease
00:32:23.274 : en:They're Playing Our Song
00:38:37.189 : en:No Butts About It!
00:48:52.971 : en:Dead Head Discovery
00:57:52.635 : en:Bad Guy Blowup
01:05:00.897 : en:Shower Spies
01:15:58.262 : en:This Is It!
01:25:56.526 : en:Noble Training
01:29:29.739 : en:End Credits
 

Вложения

  • 61,1 KB Просмотры: 0
    Личеров 0
    Сидеров 0
    Файлов 1
    Объем 24,1 GB

Привет!

Мы группа людей которые решили помочь другим в решении их проблем, а так же пользователям с поиском самых свежих и качественных инфопродуктов. За 4 с небольшим месяца мы создали этот форум на который заходят ежедневно тысячи человек и посещаемость постоянно растёт. Мы создали панель лицензирования для защиты PHP скриптов от воровства и SEO панель для мониторинга наших сайтов и выбора верной стратегии их развития. Мы надеемся что то что мы создали пригодится Вам и возможно Вы поможете нам развиваться и совершенствоваться вместе с Вами.

Статистика форума

Темы
406.656
Сообщения
465.104
Пользователи
84.659
Новый пользователь
кнунун

Приложения форума для iOS и Android


У ркн там нет власти ;)
Приватные разговоры
Помощь Пользователи
    Вы не присоединились ни к одной комнате.