За последнюю неделю опубликовано 57 новых материалов.
Инструкция новичку Путеводитель по форуму Прокси для Telegram Показать подсказки , это бомба!

Скачать Враг Государства №1: Легенда / L'ennemi public n°1 (2008) BDRip-AVC от ExKinoRay | D бесплатно через торрент

  • Поучаствуй (в качестве покупателя) в любых пяти совместных покупках (кроме завершённых и "Моментальных") и получи группу "Новичок" навсегда -> ссылка на раздел
  • Получай до 480 рублей за каждого приглашенного пользователя!
    представляем Вам очередное расширение партнерской программы, подробности описаны тут -> ссылка
  • 90% материалов доступно к скачиванию после простой регистрации!
    Если же ты хочешь скачивать материалы без требования оставлять отзывы то получи группу "Новичок", 10 способов повышения описаны тут -> ссылка
  • К сожалению количество битых ссылок растет и мы уже не можем их оперативно восстанавливать поэтому просим помощи у каждого нашего пользователя.
    С сегодняшнего дня, за каждую восстановленную ссылку мы заплатим Вам.
    Подробнее тут -> ссылка
  • Перенесем твои заслуги с другого ресурса!
    Мы понимаем как сложно прокачивать аккаунты на форумах, вроде раскачал аккаунт, а тут появляется ресурс в 100 раз круче но тоже с системой прокачки и снова качать аккаунт...
    Предлагаем вам перенести Ваши заслуги на другом подобном ресурсе к нам.
    Подробности описаны тут -> ссылка
  • Вы можете получать по 2.5% с каждой покупки и продажи на маркете! Подробности в теме Партнёрская программа
Если Вы не хотите скачивать, Вы всегда можетепосмотретьонлайн, просто нажмите кнопку ниже :

Открыть плеер

Torrent_Bot

Торрент-Бот
Бот форума
4 Окт 2016
92
163
20


Информация о фильме:
Название: Враг Государства №1: Легенда
Оригинальное название: L'ennemi public n°1
Год выхода: 2008
Жанр: Боевик, триллер, драма, криминал, биография
Режиссер: Жан-Франсуа Рише
В ролях: Венсан Кассель, Людивин Санье, Брижит Шамаранд, Матьё Амальрик, Жерар Депардье, Жерар Ланвен, Самюэль Ле Бьян, Ален Фромаже, Оливье Гурме, Мишель Дюшоссуа, Мириам Буайе, Анн Консиньи, Жорж Вильсон, Гийом Пеллегрен, Люк Тюилье

О фильме:
Вторая частью дилогии о судьбе французского гангстера Жака Мерина — продолжение фильма «Враг Государства №1». Франция, 1973-1979 годы. Жак Месрин — великий французский гангстер, прославился у себя на родине больше, чем самая яркая кинозвезда. Его лихие «подвиги» и многочисленные побеги из тюрем, умопомрачительные любовные романы, феерические приключения и исключительно циничное, но по-галльски остроумное многолетнее издевательство над полицией — всё это ныне превратилось для французов в подлинный народный эпос. Эпос о человеке, который умел быть настоящим героем. Или антигероем…




Страна: Франция, Канада
Студия: Remstar Productions Inc., La Petite Reine, Canal+ [fr]
Продолжительность: 02:13:17
Перевод: Профессиональный (полное дублирование) + Оригинал

Файл
Формат: MKV
Качество: BDRip-AVC
Видео: MPEG-4 AVC, 1024x554, - 3010 Кбит/с
Аудио: Русский (AC3, 6 ch, 448 Кбит/с), французский (AC3, 6 ch, 448 Кбит/с)
Субтитры: Русские

MI
x264 [info]: frame I:1600 Avg QP:16.16 size: 85008
x264 [info]: frame P:50089 Avg QP:19.40 size: 30032
x264 [info]: frame B:140070 Avg QP:20.56 size: 9745

Общее
Уникальный идентификатор : 10526412791669845555190465194906163160 (0x7EB503860877D2B1E99480B3D6117D8)
Полное имя : D:MOVIESVrag.gosudarstva.II.2008.BDRip-AVC.ExKinoRay.mkv
Формат : Matroska
Версия формата : Version 4
Размер файла : 3,63 Гбайт
Продолжительность : 2 ч. 13 м.
Общий поток : 3 904 Кбит/сек
Дата кодирования : UTC 2020-07-20 05:18:56
Программа кодирования : mkvmerge v45.0.0 ('Heaven in Pennies') 64-bit
Библиотека кодирования : libebml v1.3.10 + libmatroska v1.5.2

Видео
Идентификатор : 1
Формат : AVC
Формат/Информация : Advanced Video Codec
Профиль формата : [email protected]
Настройки формата : CABAC / 13 Ref Frames
Параметр CABAC формата : Да
Параметр RefFrames формата : 13 кадров
Идентификатор кодека : V_MPEG4/ISO/AVC
Продолжительность : 2 ч. 13 м.
Битрейт : 3 010 Кбит/сек
Ширина : 1 024 пикселя
Высота : 554 пикселя
Соотношение сторон : 1,85:1
Режим частоты кадров : Постоянный
Частота кадров : 23,976 (24000/1001) кадра/сек
Цветовое пространство : YUV
Субдискретизация насыщенности : 4:2:0
Битовая глубина : 8 бит
Тип развёртки : Прогрессивная
Бит/(Пиксели*Кадры) : 0.221
Размер потока : 2,80 Гбайт (77%)
Библиотека кодирования : x264 core 160 r3000 33f9e14
Настройки программы : cabac=1 / ref=13 / deblock=1:-2:-2 / analyse=0x3:0x133 / me=umh / subme=10 / psy=1 / psy_rd=1.05:0.13 / mixed_ref=1 / me_range=32 / chroma_me=1 / trellis=2 / 8x8dct=1 / cqm=0 / deadzone=21,11 / fast_pskip=0 / chroma_qp_offset=-3 / threads=6 / lookahead_threads=1 / sliced_threads=0 / nr=0 / decimate=0 / interlaced=0 / bluray_compat=0 / constrained_intra=0 / bframes=11 / b_pyramid=2 / b_adapt=2 / b_bias=0 / direct=3 / weightb=1 / open_gop=0 / weightp=2 / keyint=240 / keyint_min=23 / scenecut=40 / intra_refresh=0 / rc=2pass / mbtree=0 / bitrate=3010 / ratetol=1.0 / qcomp=0.60 / qpmin=0 / qpmax=69 / qpstep=4 / cplxblur=20.0 / qblur=0.5 / ip_ratio=1.40 / pb_ratio=1.30 / aq=1:1.00
Язык : English
Default : Да
Forced : Нет
Цветовой диапазон : Limited
Основные цвета : BT.709
Характеристики трансфера : BT.709
Коэффициенты матрицы : BT.709

Аудио #1
Идентификатор : 2
Формат : AC-3
Формат/Информация : Audio Coding 3
Коммерческое название : Dolby Digital
Идентификатор кодека : A_AC3
Продолжительность : 2 ч. 13 м.
Вид битрейта : Постоянный
Битрейт : 448 Кбит/сек
Каналы : 6 каналов
Channel layout : L R C LFE Ls Rs
Частота : 48,0 КГц
Частота кадров : 31,250 кадров/сек (1536 SPF)
Метод сжатия : С потерями
Размер потока : 427 Мбайт (11%)
Заголовок : Dub
Язык : Russian
Service kind : Complete Main
Default : Да
Forced : Нет

Аудио #2
Идентификатор : 3
Формат : AC-3
Формат/Информация : Audio Coding 3
Коммерческое название : Dolby Digital
Идентификатор кодека : A_AC3
Продолжительность : 2 ч. 13 м.
Вид битрейта : Постоянный
Битрейт : 448 Кбит/сек
Каналы : 6 каналов
Channel layout : L R C LFE Ls Rs
Частота : 48,0 КГц
Частота кадров : 31,250 кадров/сек (1536 SPF)
Метод сжатия : С потерями
Размер потока : 427 Мбайт (11%)
Язык : French
Service kind : Complete Main
Default : Нет
Forced : Нет

Текст
Идентификатор : 4
Формат : UTF-8
Идентификатор кодека : S_TEXT/UTF8
Идентификатор кодека/Информация : UTF-8 Plain Text
Продолжительность : 2 ч. 7 м.
Битрейт : 81 бит/сек
Count of elements : 1094
Размер потока : 76,2 Кбайт (0%)
Язык : Russian
Default : Нет
Forced : Нет

Меню
00:00:00.000 : en:Глава 01
00:11:04.746 : en:Глава 02
00:20:34.191 : en:Глава 03
00:28:04.391 : en:Глава 04
00:36:53.460 : en:Глава 05
00:51:58.198 : en:Глава 06
01:01:37.235 : en:Глава 07
01:16:07.979 : en:Глава 08
01:29:47.881 : en:Глава 09
01:42:43.240 : en:Глава 10
01:51:23.009 : en:Глава 11
02:08:01.757 : en:Глава 12
Скриншоты

 

Вложения

  • 19,3 KB Просмотры: 0
    Личеров 0
    Сидеров 0
    Файлов 1
    Объем 3,6 GB

Привет!

Мы группа людей которые решили помочь другим в решении их проблем, а так же пользователям с поиском самых свежих и качественных инфопродуктов. За 4 с небольшим месяца мы создали этот форум на который заходят ежедневно тысячи человек и посещаемость постоянно растёт. Мы создали панель лицензирования для защиты PHP скриптов от воровства и SEO панель для мониторинга наших сайтов и выбора верной стратегии их развития. Мы надеемся что то что мы создали пригодится Вам и возможно Вы поможете нам развиваться и совершенствоваться вместе с Вами.

Статистика форума

Темы
406.699
Сообщения
465.164
Пользователи
84.823
Новый пользователь
servet2510

Приложения форума для iOS и Android


У ркн там нет власти ;)
Приватные разговоры
Помощь Пользователи
    Вы не присоединились ни к одной комнате.