За последнюю неделю опубликовано 57 новых материалов.
Инструкция новичку Путеводитель по форуму Прокси для Telegram Показать подсказки , это бомба!

Скачать Вперёд / Onward (2020) BDRip-AVC | iTunes бесплатно через торрент

  • Поучаствуй (в качестве покупателя) в любых пяти совместных покупках (кроме завершённых и "Моментальных") и получи группу "Новичок" навсегда -> ссылка на раздел
  • Получай до 480 рублей за каждого приглашенного пользователя!
    представляем Вам очередное расширение партнерской программы, подробности описаны тут -> ссылка
  • 90% материалов доступно к скачиванию после простой регистрации!
    Если же ты хочешь скачивать материалы без требования оставлять отзывы то получи группу "Новичок", 10 способов повышения описаны тут -> ссылка
  • К сожалению количество битых ссылок растет и мы уже не можем их оперативно восстанавливать поэтому просим помощи у каждого нашего пользователя.
    С сегодняшнего дня, за каждую восстановленную ссылку мы заплатим Вам.
    Подробнее тут -> ссылка
  • Перенесем твои заслуги с другого ресурса!
    Мы понимаем как сложно прокачивать аккаунты на форумах, вроде раскачал аккаунт, а тут появляется ресурс в 100 раз круче но тоже с системой прокачки и снова качать аккаунт...
    Предлагаем вам перенести Ваши заслуги на другом подобном ресурсе к нам.
    Подробности описаны тут -> ссылка
  • Вы можете получать по 2.5% с каждой покупки и продажи на маркете! Подробности в теме Партнёрская программа
Если Вы не хотите скачивать, Вы всегда можетепосмотретьонлайн, просто нажмите кнопку ниже :

Открыть плеер

Torrent_Bot

Торрент-Бот
Бот форума
4 Окт 2016
92
160
20


«Cometh Soon»

Информация о фильме
Название: Вперёд
Оригинальное название: Onward
Год выхода: 2020
Жанр: Мультфильм, фэнтези, комедия, приключения, семейный
Режиссер: Дэн Скэнлон
Роли озвучивают: Том Холланд, Крис Пратт, Джулия Луис-Дрейфус, Джон Ратценбергер, Октавия Спенсер, Мэл Родригез, Лина Уэйте, Али Вонг, Грэй Гриффин, Трейси Ульман

О фильме:
Когда-то давно в сказочном мире царила магия, но после открытия электричества маги стали не нужны, и развитие пошло по техногенному пути. Теперь эльфы, тролли, гоблины, мантикоры, феи, кентавры и единороги летают на самолетах, пользуются автомобилями и мобильниками и ведут в целом прозаичную жизнь.

Братья-эльфы Иэн и Барли Лайтфуты воспитывались одной мамой, потому что их отец умер, когда они были ещё совсем маленькими. На 16-летие Иэну достаётся посох отца, и магическое заклинание, которое должно вернуть того к жизни на один день, но волшебный кристалл исчезает, воскресив только нижнюю половину папы. Барли, большой любитель квестов, невероятно рад — прихватив полупапу, братья отправляются в приключение на поиски другого кристалла.



Страна: США
Студия: Pixar Animation Studios, Walt Disney Pictures
Продолжительность: 01:42:21
Перевод: Профессиональный (полное дублирование) | iTunes

Файл
Качество: BDRip-AVC
Исходник: Onward.2020.BDREMUX.1080p.seleZen
Формат: MKV
Кодек: MPEG-4 AVC
Видео: 720x302, (2,40:1), 23,976 fps, MPEG-4 AVC ~ 1590 Kbps avg, 0.305 bit/pixel
Аудио: AC3, 48 kHz, 6 ch, ~384.00 kbps avg | русский | iTunes
Субтитры: Русские (Full)

Инфо-файл
Общее
Уникальный идентификатор : 10975275025620247372998655622740171028 (0x841C2D644A680B2EB2A70C5CC0FD914)
Полное имя : Onward.2020.iT.BDRip.1.41Gb.x264.mkv
Формат : Matroska
Версия формата : Version 4
Размер файла : 1,41 Гбайт
Продолжительность : 1 ч. 42 м.
Общий поток : 1976 Кбит/сек
Название фильма : Вперёд / Onward (2020)
Дата кодирования : UTC 2020-05-14 10:11:12
Программа кодирования : mkvmerge v46.0.0 ('No Deeper Escape') 64-bit
Библиотека кодирования : libebml v1.3.10 + libmatroska v1.5.2
Обложка : Yes
Attachments : cover.jpg

Видео
Идентификатор : 1
Формат : AVC
Формат/Информация : Advanced Video Codec
Профиль формата : [email protected]
Настройки формата : CABAC / 10 Ref Frames
Параметр CABAC формата : Да
Параметр RefFrames формата : 10 кадров
Идентификатор кодека : V_MPEG4/ISO/AVC
Продолжительность : 1 ч. 42 м.
Битрейт : 1590 Кбит/сек
Ширина : 720 пикселей
Высота : 302 пикселя
Соотношение сторон : 2,40:1
Режим частоты кадров : Постоянный
Частота кадров : 23,976 (24000/1001) кадра/сек
Цветовое пространство : YUV
Субдискретизация насыщенности : 4:2:0
Битовая глубина : 8 бит
Тип развёртки : Прогрессивная
Бит/(Пиксели*Кадры) : 0.305
Размер потока : 1,14 Гбайт (80%)
Заголовок : #stillet
Библиотека кодирования : x264 core 152 r2851bm ba24899
Настройки программы : cabac=1 / ref=10 / deblock=1:-3:-3 / analyse=0x3:0x113 / me=umh / subme=11 / psy=1 / psy_rd=1.00:0.15 / mixed_ref=1 / me_range=32 / chroma_me=1 / trellis=2 / 8x8dct=1 / cqm=0 / deadzone=21,11 / fast_pskip=0 / chroma_qp_offset=-3 / threads=8 / lookahead_threads=3 / sliced_threads=0 / nr=0 / decimate=0 / interlaced=0 / bluray_compat=0 / constrained_intra=0 / bframes=14 / b_pyramid=2 / b_adapt=2 / b_bias=0 / direct=3 / weightb=1 / open_gop=0 / weightp=2 / keyint=240 / keyint_min=23 / scenecut=40 / intra_refresh=0 / rc=2pass / mbtree=0 / bitrate=1590 / ratetol=1.0 / qcomp=0.60 / qpmin=0 / qpmax=69 / qpstep=4 / cplxblur=20.0 / qblur=0.5 / ip_ratio=1.40 / pb_ratio=1.30 / aq=1:1.00
Язык : English
Default : Да
Forced : Нет

Аудио
Идентификатор : 2
Формат : AC-3
Формат/Информация : Audio Coding 3
Коммерческое название : Dolby Digital
Идентификатор кодека : A_AC3
Продолжительность : 1 ч. 42 м.
Вид битрейта : Постоянный
Битрейт : 384 Кбит/сек
Каналы : 6 каналов
ChannelLayout : L R C LFE Ls Rs
Частота : 48,0 КГц
Частота кадров : 31,250 кадров/сек (1536 SPF)
Метод сжатия : С потерями
Размер потока : 281 Мбайт (19%)
Заголовок : iTunes
Язык : Russian
Default : Да
Forced : Да

Текст
Идентификатор : 3
Формат : UTF-8
Идентификатор кодека : S_TEXT/UTF8
Идентификатор кодека/Информация : UTF-8 Plain Text
Продолжительность : 1 ч. 31 м.
Битрейт : 113 бит/сек
ElementCount : 1556
Размер потока : 76,3 Кбайт (0%)
Заголовок : Full
Язык : Russian
Default : Нет
Forced : Нет

Меню
00:00:00.686 : en:Studio Logo
00:00:49.686 : en:Long ago
00:03:04.686 : en:Title Sequence
00:03:09.686 : en:Ian's morning
00:05:03.686 : en:Officer Bronco comes to Ligjtfoots
00:07:03.686 : en:Ian meet Dad's friend
00:08:14.686 : en:Making a list
00:09:34.686 : en:Ian starts his day
00:12:44.686 : en:Ian misses his Dad
00:14:53.686 : en:A gift from Dad
00:19:17.686 : en:Ian is at his room
00:20:38.686 : en:Barley comes up with something
00:23:46.686 : en:Barley drives his car
00:25:34.686 : en:Learning magic
00:27:25.686 : en:The boys look for the Manticore
00:31:21.686 : en:The Manticore comes back
00:32:49.686 : en:Laurel worries about the boys
00:36:33.686 : en:Guinevere gets a trouble
00:39:34.686 : en:Ian tries magic again
00:42:48.686 : en:The Manticore talks to Laurel
00:44:00.686 : en:Ian drives Guinevere
00:47:48.686 : en:The spell wears off
00:51:43.686 : en:Barley argues with Ian
00:54:59.686 : en:Grecklin of the Pawn shop
00:56:07.686 : en:Bronco calls Laurel
00:57:24.686 : en:Raven's Point
01:03:06.686 : en:Bronco chases the boys
01:07:05.686 : en:The boys follow the birds
01:08:49.686 : en:Ian likes the spell
01:10:06.686 : en:Laurel encounters Pixie Dusters
01:11:12.686 : en:Barley talks about Dad
01:13:30.686 : en:The boys are in dangerous
01:15:58.686 : en:Back where they started
01:17:59.686 : en:Barley cannot give it up
01:20:26.686 : en:It's curse
01:22:44.686 : en:I am a mighty warrior
01:24:26.686 : en:Ian's decision
01:26:59.686 : en:What Ian see
01:30:07.686 : en:Ian back to his school
01:32:53.686 : en:End Credits
Скриншоты
 

Вложения

  • 15 KB Просмотры: 0
    Личеров 0
    Сидеров 0
    Файлов 1
    Объем 1,4 GB

Привет!

Мы группа людей которые решили помочь другим в решении их проблем, а так же пользователям с поиском самых свежих и качественных инфопродуктов. За 4 с небольшим месяца мы создали этот форум на который заходят ежедневно тысячи человек и посещаемость постоянно растёт. Мы создали панель лицензирования для защиты PHP скриптов от воровства и SEO панель для мониторинга наших сайтов и выбора верной стратегии их развития. Мы надеемся что то что мы создали пригодится Вам и возможно Вы поможете нам развиваться и совершенствоваться вместе с Вами.

Статистика форума

Темы
406.651
Сообщения
465.094
Пользователи
84.635
Новый пользователь
Lilimils

Приложения форума для iOS и Android


У ркн там нет власти ;)
Приватные разговоры
Помощь Пользователи
    Вы не присоединились ни к одной комнате.