За последнюю неделю опубликовано 23 новых материалов.
Инструкция новичку Путеводитель по форуму Прокси для Telegram Показать подсказки , это бомба!

Скачать Возвращение живых мертвецов 2 / Return of the Living Dead Part II (1988) BDRip 1080p | P, A бесплатно через торрент

  • Поучаствуй (в качестве покупателя) в любых пяти совместных покупках (кроме завершённых и "Моментальных") и получи группу "Новичок" навсегда -> ссылка на раздел
  • Получай до 480 рублей за каждого приглашенного пользователя!
    представляем Вам очередное расширение партнерской программы, подробности описаны тут -> ссылка
  • 90% материалов доступно к скачиванию после простой регистрации!
    Если же ты хочешь скачивать материалы без требования оставлять отзывы то получи группу "Новичок", 10 способов повышения описаны тут -> ссылка
  • К сожалению количество битых ссылок растет и мы уже не можем их оперативно восстанавливать поэтому просим помощи у каждого нашего пользователя.
    С сегодняшнего дня, за каждую восстановленную ссылку мы заплатим Вам.
    Подробнее тут -> ссылка
  • Перенесем твои заслуги с другого ресурса!
    Мы понимаем как сложно прокачивать аккаунты на форумах, вроде раскачал аккаунт, а тут появляется ресурс в 100 раз круче но тоже с системой прокачки и снова качать аккаунт...
    Предлагаем вам перенести Ваши заслуги на другом подобном ресурсе к нам.
    Подробности описаны тут -> ссылка
  • Вы можете получать по 2.5% с каждой покупки и продажи на маркете! Подробности в теме Партнёрская программа
Если Вы не хотите скачивать, Вы всегда можетепосмотретьонлайн, просто нажмите кнопку ниже :

Открыть плеер

Torrent_Bot

Торрент-Бот
Бот форума
4 Окт 2016
81
189
20

Информация о фильме
Название: Возвращение живых мертвецов 2
Оригинальное название: Return of the Living Dead Part II
Год выхода: 1988
Жанр: Ужасы, комедия
Режиссер: Кен Видерхорн
В ролях: Майкл Кенуорти, Тор Ван Линген, Джейсон Хоган, Джеймс Карен, Том Мэтьюз, Сюзанн Снайдер, Марша Дитлайн, Сюзэнн Снайдер, Джонатан Терри, Дэна Эшбрук, Сэлли Смайт, Аллан Траутман, Дон Максвелл, Рейнолд Синдрич, Филип Брунс, Митч Пиледжи, Артуро Бонилла, Терренс Риггинс, Джеймс МакИнтайр, Ларри Николас, Форрест Дж Экерман, Дуглас Бенсон, Дэвид Эби, Николас Эрнандез, Дерек Лоугрэн, Энни Маршалл, Ричард Мур, Стив Нювенхейм, Брайан Пек

О фильме:
Мертвые не любят «прохлаждаться» под землёй, в особенности в фильмах ужасов. И вегетарианская диета им совсем не подходит. Именно поэтому кровожадные зомби решают в очередной раз полакомиться человеческими мозгами. Новое поколение зомби появилось на свет из-за аварии армейского грузовика, перевозившего нервно-паралитический газ. Зловещие зелёные испарения доползли до местного кладбища и оживили сотни проголодавшихся покойников, которые с энтузиазмом вышли на охоту! Ожившие мертвецы решают устроить — пир, «приготовив», «в качестве «главного блюда», беспечных жителей местного городка! Мёртвые очень не любят живых, и их месть людям будет беспощадна и ужасна!





Страна: США
Студия: Greenfox
Продолжительность: 01:29:16
Перевод: Профессиональный многоголосый, авторский


Файл
Кодек: x264
Качество: BDRip 1080p
Видео: MPEG-4 AVC, 13.3 Mбит/с, 1920x1040
Звук №1: Русский | AC3, 2 ch, 192 Кбит/с | Профессиональный многоголосый | Премьер Видео Фильм
Звук №2: Русский | AC3, 2 ch, 192 Кбит/с | Авторский одноголосый | Филонов
Звук №3: Русский | AC3, 2 ch, 192 Кбит/с | Авторский одноголосый | Живов
Звук №4: Русский | AC3, 2 ch, 192 Кбит/с | Авторский одноголосый | Гаврилов
Звук №5: Русский | AC3, 2 ch, 192 Кбит/с | Авторский одноголосый | Сонькин
Звук №6: Английский | DTS, 2 ch, 1536 Кбит/с | Оригинал
Субтитры: Русские, английские

Награды
Сатурн, 1988 год
Номинации (1):
Лучшая музыка
Скриншоты
Инфо-файл
Формат : Matroska
Версия формата : Version 2
Размер файла : 10,0 Гбайт
Продолжительность : 1 ч. 29 м.
Общий поток : 16,1 Мбит/сек
Название фильма : Return.of.the.Living.Dead.Part.II.1988.1080p.BluRay.by.zzZGVvv
Дата кодирования : UTC 2018-08-24 13:04:10
Программа кодирования : mkvmerge v5.8.0 ('No Sleep / Pillow') built on Sep 2 2012 15:37:04
Библиотека кодирования : libebml v1.2.3 + libmatroska v1.3.0
Attachements : cover.jpg

Видео
Идентификатор : 1
Формат : AVC
Формат/Информация : Advanced Video Codec
Профиль формата : [email protected]
Параметр CABAC формата : Да
Параметр ReFrames формата : 4 кадра
Идентификатор кодека : V_MPEG4/ISO/AVC
Продолжительность : 1 ч. 29 м.
Битрейт : 13,3 Мбит/сек
Ширина : 1920 пикселей
Высота : 1040 пикселей
Соотношение сторон : 1,85:1
Режим частоты кадров : Постоянный
Частота кадров : 23,976 кадра/сек
Цветовое пространство : YUV
Субдискретизация насыщенности : 4:2:0
Битовая глубина : 8 бит
Тип развёртки : Прогрессивная
Бит/(Пиксели*Кадры) : 0.277
Размер потока : 8,28 Гбайт (83%)
Заголовок : Return.of.the.Living.Dead.Part.II.1988.1080p.BluRay.x264.DTS-FGT
Библиотека кодирования : x264 core 148 r2708 86b7198
Настройки программы : cabac=1 / ref=4 / deblock=1:-3:-3 / analyse=0x3:0x133 / me=umh / subme=9 / psy=1 / psy_rd=1.00:0.00 / mixed_ref=1 / me_range=24 / chroma_me=1 / trellis=2 / 8x8dct=1 / cqm=0 / deadzone=21,11 / fast_pskip=0 / chroma_qp_offset=-2 / threads=12 / lookahead_threads=1 / sliced_threads=0 / nr=0 / decimate=1 / interlaced=0 / bluray_compat=0 / constrained_intra=0 / bframes=6 / b_pyramid=2 / b_adapt=2 / b_bias=0 / direct=3 / weightb=1 / open_gop=0 / weightp=2 / keyint=240 / keyint_min=24 / scenecut=40 / intra_refresh=0 / rc_lookahead=60 / rc=crf / mbtree=1 / crf=20.0 / qcomp=0.60 / qpmin=0 / qpmax=69 / qpstep=4 / vbv_maxrate=62500 / vbv_bufsize=78125 / crf_max=0.0 / nal_hrd=none / filler=0 / ip_ratio=1.40 / aq=1:1.00
Default : Да
Forced : Нет
Цветовой диапазон : Limited
Основные цвета : BT.709
Характеристики трансфера : BT.709
Коэффициенты матрицы : BT.709

Аудио #1
Идентификатор : 2
Формат : AC-3
Формат/Информация : Audio Coding 3
Расширение режима : CM (complete main)
Параметр Endianness формата : Big
Идентификатор кодека : A_AC3
Продолжительность : 1 ч. 29 м.
Вид битрейта : Постоянный
Битрейт : 192 Кбит/сек
Каналы : 2 канала
Расположение каналов : Front: L R
Частота : 48,0 КГц
Метод сжатия : С потерями
Размер потока : 123 Мбайт (1%)
Заголовок : MVO (Премьер Видео Фильм)
Язык : Russian
Default : Да
Forced : Нет

Аудио #2
Идентификатор : 3
Формат : AC-3
Формат/Информация : Audio Coding 3
Расширение режима : CM (complete main)
Параметр Endianness формата : Big
Идентификатор кодека : A_AC3
Продолжительность : 1 ч. 29 м.
Вид битрейта : Постоянный
Битрейт : 192 Кбит/сек
Каналы : 2 канала
Расположение каналов : Front: L R
Частота : 48,0 КГц
Метод сжатия : С потерями
Размер потока : 123 Мбайт (1%)
Заголовок : AVO (Филонов)
Язык : Russian
Default : Нет
Forced : Нет

Аудио #3
Идентификатор : 4
Формат : AC-3
Формат/Информация : Audio Coding 3
Профиль формата : Dolby Digital
Расширение режима : CM (complete main)
Параметр Endianness формата : Big
Идентификатор кодека : A_AC3
Продолжительность : 1 ч. 29 м.
Вид битрейта : Постоянный
Битрейт : 192 Кбит/сек
Каналы : 2 канала
Расположение каналов : Front: L R
Частота : 48,0 КГц
Метод сжатия : С потерями
Размер потока : 123 Мбайт (1%)
Заголовок : AVO (Живов)
Язык : Russian
Default : Нет
Forced : Нет

Аудио #4
Идентификатор : 5
Формат : AC-3
Формат/Информация : Audio Coding 3
Расширение режима : CM (complete main)
Параметр Endianness формата : Big
Идентификатор кодека : A_AC3
Продолжительность : 1 ч. 29 м.
Вид битрейта : Постоянный
Битрейт : 192 Кбит/сек
Каналы : 2 канала
Расположение каналов : Front: L R
Частота : 48,0 КГц
Метод сжатия : С потерями
Размер потока : 123 Мбайт (1%)
Заголовок : AVO (Гаврилов)
Язык : Russian
Default : Нет
Forced : Нет

Аудио #5
Идентификатор : 6
Формат : AC-3
Формат/Информация : Audio Coding 3
Расширение режима : CM (complete main)
Параметр Endianness формата : Big
Идентификатор кодека : A_AC3
Продолжительность : 1 ч. 29 м.
Вид битрейта : Постоянный
Битрейт : 192 Кбит/сек
Каналы : 2 канала
Расположение каналов : Front: L R
Частота : 48,0 КГц
Метод сжатия : С потерями
Размер потока : 123 Мбайт (1%)
Заголовок : AVO (Сонькин)
Язык : Russian
Default : Нет
Forced : Нет

Аудио #6
Идентификатор : 7
Формат : DTS
Формат/Информация : Digital Theater Systems
Режим : 16
Параметр Endianness формата : Big
Идентификатор кодека : A_DTS
Продолжительность : 1 ч. 29 м.
Вид битрейта : Постоянный
Битрейт : 1509 Кбит/сек
Каналы : 2 канала
Расположение каналов : Front: L R
Частота : 48,0 КГц
Битовая глубина : 24 бит
Метод сжатия : С потерями
Размер потока : 965 Мбайт (9%)
Язык : English
Default : Нет
Forced : Нет

Текст #1
Идентификатор : 8
Формат : UTF-8
Идентификатор кодека : S_TEXT/UTF8
Идентификатор кодека/Информация : UTF-8 Plain Text
Язык : Russian
Default : Нет
Forced : Нет

Текст #2
Идентификатор : 9
Формат : UTF-8
Идентификатор кодека : S_TEXT/UTF8
Идентификатор кодека/Информация : UTF-8 Plain Text
Язык : Russian
Default : Нет
Forced : Нет

Текст #3
Идентификатор : 10
Формат : UTF-8
Идентификатор кодека : S_TEXT/UTF8
Идентификатор кодека/Информация : UTF-8 Plain Text
Язык : English
Default : Нет
Forced : Нет

Меню
00:00:00.000 : :Chapter 1
00:08:03.114 : :Chapter 2
00:16:42.049 : :Chapter 3
00:25:17.647 : :Chapter 4
00:31:53.876 : :Chapter 5
00:40:39.735 : :Chapter 6
00:48:19.611 : :Chapter 7
00:55:07.811 : :Chapter 8
01:02:57.863 : :Chapter 9
01:09:57.783 : :Chapter 10
01:16:43.188 : :Chapter 11
01:24:12.762 : :Chapter 12
 

Вложения

  • 51,1 KB Просмотры: 1
    Личеров 0
    Сидеров 0
    Файлов 1
    Объем 10 GB

Привет!

Мы группа людей которые решили помочь другим в решении их проблем, а так же пользователям с поиском самых свежих и качественных инфопродуктов. За 4 с небольшим месяца мы создали этот форум на который заходят ежедневно тысячи человек и посещаемость постоянно растёт. Мы создали панель лицензирования для защиты PHP скриптов от воровства и SEO панель для мониторинга наших сайтов и выбора верной стратегии их развития. Мы надеемся что то что мы создали пригодится Вам и возможно Вы поможете нам развиваться и совершенствоваться вместе с Вами.

Статистика форума

Темы
413.029
Сообщения
472.386
Пользователи
93.533
Новый пользователь
еким

Приложения форума для iOS и Android


У ркн там нет власти ;)
Приватные разговоры
Помощь Пользователи
    Вы не присоединились ни к одной комнате.