За последнюю неделю опубликовано 28 новых материалов.
Инструкция новичку Путеводитель по форуму Прокси для Telegram Показать подсказки , это бомба!

Скачать Возвращение / The Recall (2017) BDRip 720p от ELEKTRI4KA | iTunes бесплатно через торрент

  • Поучаствуй (в качестве покупателя) в любых пяти совместных покупках (кроме завершённых и "Моментальных") и получи группу "Новичок" навсегда -> ссылка на раздел
  • Получай до 480 рублей за каждого приглашенного пользователя!
    представляем Вам очередное расширение партнерской программы, подробности описаны тут -> ссылка
  • 90% материалов доступно к скачиванию после простой регистрации!
    Если же ты хочешь скачивать материалы без требования оставлять отзывы то получи группу "Новичок", 10 способов повышения описаны тут -> ссылка
  • К сожалению количество битых ссылок растет и мы уже не можем их оперативно восстанавливать поэтому просим помощи у каждого нашего пользователя.
    С сегодняшнего дня, за каждую восстановленную ссылку мы заплатим Вам.
    Подробнее тут -> ссылка
  • Перенесем твои заслуги с другого ресурса!
    Мы понимаем как сложно прокачивать аккаунты на форумах, вроде раскачал аккаунт, а тут появляется ресурс в 100 раз круче но тоже с системой прокачки и снова качать аккаунт...
    Предлагаем вам перенести Ваши заслуги на другом подобном ресурсе к нам.
    Подробности описаны тут -> ссылка
  • Вы можете получать по 2.5% с каждой покупки и продажи на маркете! Подробности в теме Партнёрская программа
Если Вы не хотите скачивать, Вы всегда можетепосмотретьонлайн, просто нажмите кнопку ниже :

Открыть плеер

Torrent_Bot

Торрент-Бот
Бот форума
4 Окт 2016
93
160
20

Информация о фильме
Название: Возвращение
Оригинальное название: The Recall
Год выхода: 2017
Жанр: фантастика, боевик, триллер
Режиссер: Мауро Боррелли
В ролях: АрДжей Митти, Уэсли Снайпс, Джедидайя Гудакр, Нико Пепадж, Грэхэм Шилз, Hannah Rose May, Виселос Реон Шеннон, Элиша Криис, Лаура Билгери, Guy Griffithe

О фильме: Пока группа друзей собирается в День Труда отдохнуть на острове - по всему миру происходят странные метеорологические явления, а обитающий в окрестностях того же озера опальный астронавт готовится к возвращению неких Посетителей, с которыми у него личные счеты.



Выпущено: Канада / Bridgegate Pictures, Minds Eye Entertainment
Продолжительность: 01:31:07
Озвучивание: Профессиональное (многоголосое) | iTunes

Файл
Формат: MKV
Качество: BDRip 720p
Видео: AVC, 5357 Kb/s, 1280x536
Аудио #1: Russian: 48 kHz, AC3 Dolby Digital, 2/0 (L, R) ch, ~192 Kbps | iTunes
Аудио #2: English: 48 kHz, Digital Theater Systems, 3/2 (L, C, R, l, r) + LFE ch, ~1509 Kbps | Original
Субтитры: English
Дополнительно: Сохранены оригинальные чаптеры.

Релиз группы: &

MediaInfo:
Complete name: Vozvraschenie.2017.BDRip.720p.ELEKTRI4KA.UNIONGANG.mkv
Format: Matroska
Format version: Version 4 / Version 2
File size: 4.49 GiB
Duration: 1 h 31 min
Overall bit rate: 7 057 kb/s
Movie name: .ELEKTRI4KA.UNIONGANG.
Encoded date: UTC 2020-06-16 15:00:09
Writing application: mkvmerge v8.3.0 ('Over the Horizon') 64bit
Writing library: libebml v1.3.1 + libmatroska v1.4.2

Video
ID: 1
Format: AVC
Format/Info: Advanced Video Codec
Format profile: [email protected]
Format settings, CABAC: Yes
Format settings, Reference frames: 5 frames
Codec ID: V_MPEG4/ISO/AVC
Duration: 1 h 31 min
Bit rate: 5 357 kb/s
Width: 1 280 pixels
Height: 536 pixels
Display aspect ratio: 2.40:1
Frame rate mode: Constant
Frame rate: 23.976 (24000/1001) FPS
Color space: YUV
Chroma subsampling: 4:2:0
Bit depth: 8 bits
Scan type: Progressive
Bits/(Pixel*Frame): 0.326
Stream size: 3.41 GiB (76%)
Writing library: x264 core 152 r2851kMod ba24899
Encoding settings: cabac=1 / ref=5 / deblock=1:-3:-3 / analyse=0x3:0x133 / me=umh / subme=8 / psy=1 / fade_compensate=0.00 / psy_rd=1.00:0.00 / mixed_ref=1 / me_range=16 / chroma_me=1 / trellis=1 / 8x8dct=1 / cqm=0 / deadzone=21, 11 / fast_pskip=0 / chroma_qp_offset=-2 / threads=6 / lookahead_threads=1 / sliced_threads=0 / nr=0 / decimate=1 / interlaced=0 / bluray_compat=0 / constrained_intra=0 / bframes=3 / b_pyramid=2 / b_adapt=1 / b_bias=0 / direct=3 / weightb=1 / open_gop=0 / weightp=2 / keyint=250 / keyint_min=23 / scenecut=40 / intra_refresh=0 / rc_lookahead=50 / rc=2pass / mbtree=1 / bitrate=5357 / ratetol=1.0 / qcomp=0.60 / qpmin=0 / qpmax=69 / qpstep=4 / cplxblur=20.0 / qblur=0.5 / vbv_maxrate=62500 / vbv_bufsize=78125 / nal_hrd=none / filler=0 / ip_ratio=1.40 / aq=1:1.00
Default: Yes
Forced: No

Audio #1
ID: 2
Format: AC-3
Format/Info: Audio Coding 3
Mode extension: CM (complete main)
Format settings, Endianness: Big
Codec ID: A_AC3
Duration: 1 h 31 min
Bit rate mode: Constant
Bit rate: 192 kb/s
Channel(s): 2 channels
Channel positions: Front: L R
Sampling rate: 48.0 kHz
Frame rate: 31.250 FPS (1536 spf)
Bit depth: 16 bits
Compression mode: Lossy
Stream size: 125 MiB (3%)
Title: iTunes
Language: Russian
Default: Yes
Forced: No

Audio #2
ID: 3
Format: DTS
Format/Info: Digital Theater Systems
Mode: 16
Format settings, Endianness: Big
Codec ID: A_DTS
Duration: 1 h 31 min
Bit rate mode: Constant
Bit rate: 1 509 kb/s
Channel(s): 6 channels
Channel positions: Front: L C R, Side: L R, LFE
Sampling rate: 48.0 kHz
Frame rate: 93.750 FPS (512 spf)
Bit depth: 24 bits
Compression mode: Lossy
Stream size: 983 MiB (21%)
Language: English
Default: No
Forced: No

Text
ID: 4
Format: UTF-8
Codec ID: S_TEXT/UTF8
Codec ID/Info: UTF-8 Plain Text
Duration: 1 h 25 min
Bit rate: 38 b/s
Count of elements: 859
Stream size: 23.8 KiB (0%)
Language: English
Default: No
Forced: No

Menu
00:00:00.000: en:00:00:00.000
00:10:38.388: en:00:10:38.388
00:28:34.254: en:00:28:34.254
00:44:13.818: en:00:44:13.818
00:58:46.273: en:00:58:46.273
01:18:29.788: en:01:18:29.788
Скриншоты

 

Вложения

  • 23,3 KB Просмотры: 0
    Личеров 0
    Сидеров 0
    Файлов 1
    Объем 4,5 GB

Привет!

Мы группа людей которые решили помочь другим в решении их проблем, а так же пользователям с поиском самых свежих и качественных инфопродуктов. За 4 с небольшим месяца мы создали этот форум на который заходят ежедневно тысячи человек и посещаемость постоянно растёт. Мы создали панель лицензирования для защиты PHP скриптов от воровства и SEO панель для мониторинга наших сайтов и выбора верной стратегии их развития. Мы надеемся что то что мы создали пригодится Вам и возможно Вы поможете нам развиваться и совершенствоваться вместе с Вами.

Статистика форума

Темы
406.613
Сообщения
465.071
Пользователи
84.480
Новый пользователь
Надя 362469

Приложения форума для iOS и Android


У ркн там нет власти ;)
Приватные разговоры
Помощь Пользователи
    Вы не присоединились ни к одной комнате.