За последнюю неделю опубликовано 29 новых материалов.
Инструкция новичку Путеводитель по форуму Прокси для Telegram Показать подсказки , это бомба!

Скачать Возвращение Супермена / Superman Returns (2006) BDRip 1080p | D бесплатно через торрент

  • Поучаствуй (в качестве покупателя) в любых пяти совместных покупках (кроме завершённых и "Моментальных") и получи группу "Новичок" навсегда -> ссылка на раздел
  • Получай до 480 рублей за каждого приглашенного пользователя!
    представляем Вам очередное расширение партнерской программы, подробности описаны тут -> ссылка
  • 90% материалов доступно к скачиванию после простой регистрации!
    Если же ты хочешь скачивать материалы без требования оставлять отзывы то получи группу "Новичок", 10 способов повышения описаны тут -> ссылка
  • К сожалению количество битых ссылок растет и мы уже не можем их оперативно восстанавливать поэтому просим помощи у каждого нашего пользователя.
    С сегодняшнего дня, за каждую восстановленную ссылку мы заплатим Вам.
    Подробнее тут -> ссылка
  • Перенесем твои заслуги с другого ресурса!
    Мы понимаем как сложно прокачивать аккаунты на форумах, вроде раскачал аккаунт, а тут появляется ресурс в 100 раз круче но тоже с системой прокачки и снова качать аккаунт...
    Предлагаем вам перенести Ваши заслуги на другом подобном ресурсе к нам.
    Подробности описаны тут -> ссылка
  • Вы можете получать по 2.5% с каждой покупки и продажи на маркете! Подробности в теме Партнёрская программа
Если Вы не хотите скачивать, Вы всегда можетепосмотретьонлайн, просто нажмите кнопку ниже :

Открыть плеер

Torrent_Bot

Торрент-Бот
Бот форума
4 Окт 2016
93
156
20

Информация о фильме
Название: Возвращение Супермена
Оригинальное название: Superman Returns
Год выхода: 2006
Жанр: фантастика, фэнтези, боевик, приключения
Режиссер: Брайан Сингер
В ролях: Брэндон Рут, Кейт Босворт, Кевин Спейси, Джеймс Мэрсден, Паркер Поузи, Фрэнк Ланджелла, Сэм Хантингтон, Ева Мари Сэйнт, Марлон Брандо, Кэлл Пенн

О фильме:
Возвратившись на Землю после своего многолетнего и загадочного отсутствия, Супермен обнаруживает, что его заклятый враг Лекс Лютор опять строит ему козни, а его возлюбленная Лоис Лэйн вроде бы уже устроила свою личную жизнь.
Кроме того, Супермен понимает, что за то время, когда его не было, люди научились прекрасно обходиться без него.
Чтобы защитить мир, который он любит, от катастрофических разрушений, Супермену приходится преодолевать огромные расстояния: он опускается в океанские глубины и поднимается на космические высоты…



Выпущено: США
Продолжительность: 02:34:21
Перевод: Дублированный + Оригинал

Файл
Кодек: x264
Качество: BDRip 1080p
Видео: 1920x800, 6302 Kbps, 23.976 fps
Аудио #1: AC-3, 6 ch, 448 kbps (Rus)
Аудио #2: AC-3, 6 ch, 448 kbps (Eng)
Субтитры: русские, английские

Скриншоты
MI
General
Unique ID : 243199052189437808381034435328291878780 (0xB6F66F075846E9A2803F4BCC8C63B77C)
Complete name : Возвращение Супермена.2006.BDRip.1080p.Rus.Eng.mkv
Format : Matroska
Format version : Version 2
File size : 7.76 GiB
Duration : 2h 34mn
Overall bit rate : 7 199 Kbps
Movie name : Возвращение Супермена.2006
Encoded date : UTC 2012-07-23 16:23:55
Writing application : mkvmerge v5.7.0 ('The Whirlwind') built on Jul 10 2012 18:39:26
Writing library : libebml v1.2.3 + libmatroska v1.3.0

Video
ID : 1
Format : AVC
Format/Info : Advanced Video Codec
Format profile : [email protected]
Format settings, CABAC : Yes
Format settings, ReFrames : 5 frames
Codec ID : V_MPEG4/ISO/AVC
Duration : 2h 34mn
Bit rate : 6 302 Kbps
Width : 1 920 pixels
Height : 800 pixels
Display aspect ratio : 2.40:1
Frame rate : 23.976 fps
Color space : YUV
Chroma subsampling : 4:2:0
Bit depth : 8 bits
Scan type : Progressive
Bits/(Pixel*Frame) : 0.171
Stream size : 6.64 GiB (86%)
Title : Rip by Boriy
Writing library : x264 core 125 r2200 999b753
Encoding settings : cabac=1 / ref=5 / deblock=1:-3:-2 / analyse=0x3:0x113 / me=umh / subme=10 / psy=1 / psy_rd=1.00:0.10 / mixed_ref=1 / me_range=32 / chroma_me=1 / trellis=2 / 8x8dct=1 / cqm=0 / deadzone=21,11 / fast_pskip=0 / chroma_qp_offset=-3 / threads=12 / lookahead_threads=2 / sliced_threads=0 / nr=0 / decimate=0 / interlaced=0 / bluray_compat=0 / constrained_intra=0 / bframes=5 / b_pyramid=2 / b_adapt=2 / b_bias=0 / direct=3 / weightb=1 / open_gop=0 / weightp=2 / keyint=240 / keyint_min=23 / scenecut=40 / intra_refresh=0 / rc_lookahead=60 / rc=2pass / mbtree=1 / bitrate=6302 / ratetol=1.0 / qcomp=0.60 / qpmin=0 / qpmax=69 / qpstep=4 / cplxblur=20.0 / qblur=0.5 / ip_ratio=1.40 / aq=1:1.00
Language : English
Default : Yes
Forced : No

Audio #1
ID : 2
Format : AC-3
Format/Info : Audio Coding 3
Mode extension : CM (complete main)
Format settings, Endianness : Big
Codec ID : A_AC3
Duration : 2h 34mn
Bit rate mode : Constant
Bit rate : 448 Kbps
Channel(s) : 6 channels
Channel positions : Front: L C R, Side: L R, LFE
Sampling rate : 48.0 KHz
Bit depth : 16 bits
Compression mode : Lossy
Stream size : 495 MiB (6%)
Title : Дубляж
Language : Russian
Default : Yes
Forced : No

Audio #2
ID : 3
Format : AC-3
Format/Info : Audio Coding 3
Mode extension : CM (complete main)
Format settings, Endianness : Big
Codec ID : A_AC3
Duration : 2h 34mn
Bit rate mode : Constant
Bit rate : 448 Kbps
Channel(s) : 6 channels
Channel positions : Front: L C R, Side: L R, LFE
Sampling rate : 48.0 KHz
Bit depth : 16 bits
Compression mode : Lossy
Stream size : 495 MiB (6%)
Title : Оригинал
Language : English
Default : No
Forced : No

Text #1
ID : 4
Format : UTF-8
Codec ID : S_TEXT/UTF8
Codec ID/Info : UTF-8 Plain Text
Title : Full
Language : Russian
Default : No
Forced : No

Text #2
ID : 5
Format : UTF-8
Codec ID : S_TEXT/UTF8
Codec ID/Info : UTF-8 Plain Text
Title : Full
Language : English
Default : No
Forced : No

Menu
00:00:00.000 : :Chapter 1
00:05:04.304 : :Chapter 2
00:07:34.453 : :Chapter 3
00:10:46.479 : :Chapter 4
00:16:31.991 : :Chapter 5
00:19:47.019 : :Chapter 6
00:21:29.287 : :Chapter 7
00:25:23.188 : :Chapter 8
00:27:26.144 : :Chapter 9
00:31:10.702 : :Chapter 10
00:35:08.773 : :Chapter 11
00:38:49.327 : :Chapter 12
00:41:54.511 : :Chapter 13
00:46:48.805 : :Chapter 14
00:49:25.295 : :Chapter 15
00:53:50.393 : :Chapter 16
00:56:47.570 : :Chapter 17
01:01:14.337 : :Chapter 18
01:06:40.162 : :Chapter 19
01:11:49.305 : :Chapter 20
01:17:12.794 : :Chapter 21
01:19:41.777 : :Chapter 22
01:22:58.807 : :Chapter 23
01:28:52.994 : :Chapter 24
01:32:58.406 : :Chapter 25
01:35:48.909 : :Chapter 26
01:40:09.336 : :Chapter 27
01:44:31.098 : :Chapter 28
01:49:28.061 : :Chapter 29
01:51:51.538 : :Chapter 30
01:56:15.635 : :Chapter 31
01:58:33.773 : :Chapter 32
02:01:54.307 : :Chapter 33
02:04:36.969 : :Chapter 34
02:07:42.655 : :Chapter 35
02:11:41.059 : :Chapter 36
02:15:46.638 : :Chapter 37
02:19:38.036 : :Chapter 38
02:20:29.421 : :Chapter 39
02:24:06.304 : :Chapter 40
02:26:30.615 : :Chapter 41
02:34:19.083 : :Chapter 42
 

Вложения

  • 39,8 KB Просмотры: 1
    Личеров 0
    Сидеров 0
    Файлов 1
    Объем 7,8 GB

Привет!

Мы группа людей которые решили помочь другим в решении их проблем, а так же пользователям с поиском самых свежих и качественных инфопродуктов. За 4 с небольшим месяца мы создали этот форум на который заходят ежедневно тысячи человек и посещаемость постоянно растёт. Мы создали панель лицензирования для защиты PHP скриптов от воровства и SEO панель для мониторинга наших сайтов и выбора верной стратегии их развития. Мы надеемся что то что мы создали пригодится Вам и возможно Вы поможете нам развиваться и совершенствоваться вместе с Вами.

Статистика форума

Темы
406.553
Сообщения
464.718
Пользователи
83.436
Новый пользователь
Karla777

Приложения форума для iOS и Android


У ркн там нет власти ;)
Приватные разговоры
Помощь Пользователи
    Вы не присоединились ни к одной комнате.