За последнюю неделю опубликовано 63 новых материалов.
Инструкция новичку Путеводитель по форуму Прокси для Telegram Показать подсказки , это бомба!

Скачать Возвращение мушкетеров / The Return of the Musketeers (1989) BDRip 1080p | P1, P, A бесплатно через торрент

  • Поучаствуй (в качестве покупателя) в любых пяти совместных покупках (кроме завершённых и "Моментальных") и получи группу "Новичок" навсегда -> ссылка на раздел
  • Получай до 480 рублей за каждого приглашенного пользователя!
    представляем Вам очередное расширение партнерской программы, подробности описаны тут -> ссылка
  • 90% материалов доступно к скачиванию после простой регистрации!
    Если же ты хочешь скачивать материалы без требования оставлять отзывы то получи группу "Новичок", 10 способов повышения описаны тут -> ссылка
  • К сожалению количество битых ссылок растет и мы уже не можем их оперативно восстанавливать поэтому просим помощи у каждого нашего пользователя.
    С сегодняшнего дня, за каждую восстановленную ссылку мы заплатим Вам.
    Подробнее тут -> ссылка
  • Перенесем твои заслуги с другого ресурса!
    Мы понимаем как сложно прокачивать аккаунты на форумах, вроде раскачал аккаунт, а тут появляется ресурс в 100 раз круче но тоже с системой прокачки и снова качать аккаунт...
    Предлагаем вам перенести Ваши заслуги на другом подобном ресурсе к нам.
    Подробности описаны тут -> ссылка
  • Вы можете получать по 2.5% с каждой покупки и продажи на маркете! Подробности в теме Партнёрская программа
Если Вы не хотите скачивать, Вы всегда можетепосмотретьонлайн, просто нажмите кнопку ниже :

Открыть плеер

Torrent_Bot

Торрент-Бот
Бот форума
4 Окт 2016
92
160
20


«Swashbuckling action, comedy capers and rollicking adventures, bigger and better than ever. They're back... all for one and one for all!»


Информация о фильме
Название: Возвращение мушкетеров
Оригинальное название: The Return of the Musketeers
Год выхода: 1989
Жанр: Боевик, мелодрама, комедия, приключения
Режиссер: Ричард Лестер
В ролях: Ким Кэтролл, Майкл Йорк, Кристофер Ли, Ричард Чемберлен, Фрэнк Финлэй, Оливер Рид, Филипп Нуаре, Рой Киннер, Джеральдин Чаплин, Фернандо Симон, Иисус Гарсия, Рафаэль Де Ла Круз, Кармен Фернандез, Лучиано Федерико, Рикардо Палашиос, Джек Тейлор...

О фильме:
В новой экранизации романа Дюма всем мушкетерам уже за сорок. Д`Артаньян прозябает в лейтенантах, Арамиса интересуют больше женщины, нежели религия, Портос богат, но несчастлив, Атос потихоньку спивается.

И вот однажды всех четверых вновь вместе собирает приказ королевы. Теперь их главная соперница - дочь миледи, жаждущая отомстить за смерть матери.



Страна: Великобритания, Франция, Испания
Студия: Ciné 5, Fildebroc, Iberoamericana Films Producción S.A., Investimage, Sofica Sofinergie, Timothy Burrill Productions Limited
Продолжительность: 01:42:01
Перевод:
• Профессиональный (одноголосый, закадровый) | Вадим Андреев
• Профессиональный (многоголосый, закадровый) | НТВ+
• Авторский (одноголосый, закадровый) | Василий Горчаков

Файл
Качество: BDRip 1080p
Исходник:The.Return.of.the.Musketeers.1989.1080p.BluRay.REMUX.AVC.FLAC.2.0-EPSiLON
Формат: MKV
Кодек: MPEG-4 AVC
Видео: 1916x1036 (1,85:1), 23,976 fps, MPEG-4 AVC ~ 18,4 Мbps avg, 0.387 bit/pixel
Аудио: AC3, 48 kHz, 2 ch, ~192.00 kbps avg | русский | Андреев
Аудио: AC3, 48 kHz, 2 ch, ~192.00 kbps avg | русский | НТВ+
Аудио: AC3, 48 kHz, 2 ch, ~192.00 kbps avg | русский | Горчаков
Аудио: AC3, 48 kHz, 2 ch, ~448.00 kbps avg | английский | Оригинал
Субтитры: Английские (Full, SDH)
Семпл


Инфо-файл
Общее
Уникальный идентификатор : 92105300981604870118437440273464727555 (0x454AD5F1BA60E5CC847418480E289803)
Полное имя : The.Return.of.the.Musketeers.1989.1080p.BluRay.x264.mkv
Формат : Matroska
Версия формата : Version 4
Размер файла : 13,8 Гбайт
Продолжительность : 1 ч. 42 м.
Общий поток : 19,4 Мбит/сек
Название фильма : Возвращение мушкетеров / The Return of the Musketeers (1989)
Дата кодирования : UTC 2020-08-17 16:30:51
Программа кодирования : mkvmerge v47.0.0 ('Black Flag') 64-bit
Библиотека кодирования : libebml v1.3.10 + libmatroska v1.5.2
Обложка : Yes
Attachments : cover.jpg
IMDB : tt0098194
TMDB : movie/41946

Видео
Идентификатор : 1
Формат : AVC
Формат/Информация : Advanced Video Codec
Профиль формата : [email protected]
Настройки формата : CABAC / 5 Ref Frames
Параметр CABAC формата : Да
Параметр RefFrames формата : 5 кадров
Идентификатор кодека : V_MPEG4/ISO/AVC
Продолжительность : 1 ч. 42 м.
Битрейт : 18,4 Мбит/сек
Ширина : 1 916 пикселей
Высота : 1 036 пикселей
Соотношение сторон : 1,85:1
Режим частоты кадров : Постоянный
Частота кадров : 23,976 (24000/1001) кадра/сек
Цветовое пространство : YUV
Субдискретизация насыщенности : 4:2:0
Битовая глубина : 8 бит
Тип развёртки : Прогрессивная
Бит/(Пиксели*Кадры) : 0.387
Размер потока : 13,1 Гбайт (95%)
Заголовок : #stillet
Библиотека кодирования : x264 core 152 r2851bm ba24899
Настройки программы : cabac=1 / ref=5 / deblock=1:-3:-3 / analyse=0x3:0x113 / me=umh / subme=10 / psy=1 / psy_rd=1.00:0.15 / mixed_ref=1 / me_range=32 / chroma_me=1 / trellis=2 / 8x8dct=1 / cqm=0 / deadzone=21,11 / fast_pskip=0 / chroma_qp_offset=-3 / threads=8 / lookahead_threads=3 / sliced_threads=0 / nr=0 / decimate=0 / interlaced=0 / bluray_compat=0 / constrained_intra=0 / bframes=10 / b_pyramid=2 / b_adapt=2 / b_bias=0 / direct=3 / weightb=1 / open_gop=0 / weightp=2 / keyint=240 / keyint_min=23 / scenecut=40 / intra_refresh=0 / rc_lookahead=40 / rc=2pass / mbtree=0 / bitrate=18396 / ratetol=1.0 / qcomp=0.60 / qpmin=0 / qpmax=69 / qpstep=4 / cplxblur=20.0 / qblur=0.5 / vbv_maxrate=50000 / vbv_bufsize=62500 / nal_hrd=none / filler=0 / ip_ratio=1.40 / pb_ratio=1.30 / aq=1:1.00
Язык : English
Default : Да
Forced : Нет

Аудио #1
Идентификатор : 2
Формат : AC-3
Формат/Информация : Audio Coding 3
Коммерческое название : Dolby Digital
Идентификатор кодека : A_AC3
Продолжительность : 1 ч. 42 м.
Вид битрейта : Постоянный
Битрейт : 192 Кбит/сек
Каналы : 2 канала
Channel layout : L R
Частота : 48,0 КГц
Частота кадров : 31,250 кадров/сек (1536 SPF)
Метод сжатия : С потерями
Размер потока : 140 Мбайт (1%)
Заголовок : PVO | Вадим Андреев
Язык : Russian
Service kind : Complete Main
Default : Да
Forced : Нет

Аудио #2
Идентификатор : 3
Формат : AC-3
Формат/Информация : Audio Coding 3
Коммерческое название : Dolby Digital
Идентификатор кодека : A_AC3
Продолжительность : 1 ч. 42 м.
Вид битрейта : Постоянный
Битрейт : 192 Кбит/сек
Каналы : 2 канала
Channel layout : L R
Частота : 48,0 КГц
Частота кадров : 31,250 кадров/сек (1536 SPF)
Метод сжатия : С потерями
Размер потока : 140 Мбайт (1%)
Заголовок : MVO | НТВ+
Язык : Russian
Service kind : Complete Main
Default : Нет
Forced : Нет

Аудио #3
Идентификатор : 4
Формат : AC-3
Формат/Информация : Audio Coding 3
Коммерческое название : Dolby Digital
Идентификатор кодека : A_AC3
Продолжительность : 1 ч. 42 м.
Вид битрейта : Постоянный
Битрейт : 192 Кбит/сек
Каналы : 2 канала
Channel layout : L R
Частота : 48,0 КГц
Частота кадров : 31,250 кадров/сек (1536 SPF)
Метод сжатия : С потерями
Размер потока : 140 Мбайт (1%)
Заголовок : AVO | Василий Горчаков
Язык : Russian
Service kind : Complete Main
Default : Нет
Forced : Нет

Аудио #4
Идентификатор : 5
Формат : AC-3
Формат/Информация : Audio Coding 3
Коммерческое название : Dolby Digital
Идентификатор кодека : A_AC3
Продолжительность : 1 ч. 42 м.
Вид битрейта : Постоянный
Битрейт : 448 Кбит/сек
Каналы : 2 канала
Channel layout : L R
Частота : 48,0 КГц
Частота кадров : 31,250 кадров/сек (1536 SPF)
Метод сжатия : С потерями
Размер потока : 327 Мбайт (2%)
Язык : English
Service kind : Complete Main
Default : Нет
Forced : Нет

Текст #1
Идентификатор : 6
Формат : UTF-8
Идентификатор кодека : S_TEXT/UTF8
Идентификатор кодека/Информация : UTF-8 Plain Text
Продолжительность : 1 ч. 37 м.
Битрейт : 64 бит/сек
Count of elements : 1245
Размер потока : 45,8 Кбайт (0%)
Заголовок : Full
Язык : English
Default : Нет
Forced : Нет

Текст #2
Идентификатор : 7
Формат : UTF-8
Идентификатор кодека : S_TEXT/UTF8
Идентификатор кодека/Информация : UTF-8 Plain Text
Продолжительность : 1 ч. 37 м.
Битрейт : 69 бит/сек
Count of elements : 1315
Размер потока : 49,6 Кбайт (0%)
Заголовок : SDH
Язык : English
Default : Нет
Forced : Нет

Меню
00:00:00.000 : en:Chapter 1
00:12:02.639 : en:Chapter 2
00:24:14.328 : en:Chapter 3
00:39:25.446 : en:Chapter 4
00:52:05.539 : en:Chapter 5
01:10:59.005 : en:Chapter 6
01:24:38.115 : en:Chapter 7
01:38:51.634 : en:Chapter 8
Скриншоты
 

Вложения

  • 35,5 KB Просмотры: 0
    Личеров 0
    Сидеров 0
    Файлов 1
    Объем 13,8 GB

Привет!

Мы группа людей которые решили помочь другим в решении их проблем, а так же пользователям с поиском самых свежих и качественных инфопродуктов. За 4 с небольшим месяца мы создали этот форум на который заходят ежедневно тысячи человек и посещаемость постоянно растёт. Мы создали панель лицензирования для защиты PHP скриптов от воровства и SEO панель для мониторинга наших сайтов и выбора верной стратегии их развития. Мы надеемся что то что мы создали пригодится Вам и возможно Вы поможете нам развиваться и совершенствоваться вместе с Вами.

Статистика форума

Темы
406.658
Сообщения
465.103
Пользователи
84.692
Новый пользователь
Yuyuyuppp

Приложения форума для iOS и Android


У ркн там нет власти ;)
Приватные разговоры
Помощь Пользователи
    Вы не присоединились ни к одной комнате.