За последнюю неделю опубликовано 44 новых материалов.
Инструкция новичку Путеводитель по форуму Прокси для Telegram Показать подсказки , это бомба!

Скачать Возможности карьеры / Career Opportunities (1991) BDRip 720p | P, A бесплатно через торрент

  • Поучаствуй (в качестве покупателя) в любых пяти совместных покупках (кроме завершённых и "Моментальных") и получи группу "Новичок" навсегда -> ссылка на раздел
  • Получай до 480 рублей за каждого приглашенного пользователя!
    представляем Вам очередное расширение партнерской программы, подробности описаны тут -> ссылка
  • 90% материалов доступно к скачиванию после простой регистрации!
    Если же ты хочешь скачивать материалы без требования оставлять отзывы то получи группу "Новичок", 10 способов повышения описаны тут -> ссылка
  • К сожалению количество битых ссылок растет и мы уже не можем их оперативно восстанавливать поэтому просим помощи у каждого нашего пользователя.
    С сегодняшнего дня, за каждую восстановленную ссылку мы заплатим Вам.
    Подробнее тут -> ссылка
  • Перенесем твои заслуги с другого ресурса!
    Мы понимаем как сложно прокачивать аккаунты на форумах, вроде раскачал аккаунт, а тут появляется ресурс в 100 раз круче но тоже с системой прокачки и снова качать аккаунт...
    Предлагаем вам перенести Ваши заслуги на другом подобном ресурсе к нам.
    Подробности описаны тут -> ссылка
  • Вы можете получать по 2.5% с каждой покупки и продажи на маркете! Подробности в теме Партнёрская программа
Если Вы не хотите скачивать, Вы всегда можетепосмотретьонлайн, просто нажмите кнопку ниже :

Открыть плеер

Torrent_Bot

Торрент-Бот
Бот форума
4 Окт 2016
90
168
20



Информация о фильме
Название: Возможности карьеры / Как делать карьеру
Оригинальное название: Career Opportunities
Год выхода: 1991
Жанр: мелодрама, комедия
Режиссер: Брайан Гордон

В ролях:
Фрэнк Уэйли — Джим Додж, Дженнифер Коннелли — Джози МакКлеллан, Дермонт Малруни — Нестор Пайлн, Киран Малруни — Джил Кинни, Джон М. Джексон — Бад Додж, Дженни O’Хара — Дотти Додж, Ноубл Уиллингэм — Роджер Рой МакКлеллан, Уильям Форсайт — дворник, Джон Кэнди — Си Ди Марш (менеджер магазина «Target»).

О фильме:
Работать ночным сторожем в огромном супермаркете, где можно врубить музыку на всю громкость, наесться всякой всячины от пуза, кока-колы напиться на всю оставшуюся жизнь, а потом в пустом торговом зале до самого утра кататься на роликовых коньках, — может ли быть мечта прекраснее, если тебе лет 16-17 и ты представления не имеешь, чем заняться в ближайшем будущем?

У Джима эта мечта сбылась: его взяли на работу ночным сторожем в местный супермаркет. Немедленно после закрытия входных дверей и включения сигнализации молодой человек приступил к воплощению в жизнь сокровенных желаний. И скоро обнаружил, что он в магазине не один… незнакомая девушка пробралась в супермаркет, потому как у нее тоже была похожая мечта…



Страна: США
Студия: Hughes Entertainment, Universal Pictures
Продолжительность: 01:22:51
Перевод: Профессиональный многоголосый, Авторский одноголосый, Оригинал

Файл
Кодек: x264
Качество: BDRip 720p
Видео: 1280x544 (2,35:1), 23.976 fps, 4549 Kbps
Звук:
Аудио #1: AC3, 192 Kbps, 48.0 KHz, 2 ch (Rus) Профессиональный многоголосый, ТК Россия
Аудио #2: AC3, 192 Kbps, 48.0 KHz, 2 ch (Rus) Авторский одноголосый, А.Михалёв
Аудио #3: AC3, 224 Kbps, 48.0 KHz, 2 ch (Eng) Оригинал
Субтитры: Английские

Скриншоты

MediaInfo
Format : Matroska
Format version : Version 2
File size : 2.99 GiB
Duration : 1 h 22 min
Overall bit rate : 5 157 kb/s
Encoded date : UTC 2018-11-25 21:51:52
Writing application : mkvmerge v5.4.0 ('Piper') built on Mar 10 2012 13:34:39
Writing library : libebml v1.2.3 + libmatroska v1.3.0

Video
ID : 1
Format : AVC
Format/Info : Advanced Video Codec
Format profile : [email protected]
Format settings : CABAC / 12 Ref Frames
Format settings, CABAC : Yes
Format settings, RefFrames : 12 frames
Codec ID : V_MPEG4/ISO/AVC
Duration : 1 h 22 min
Bit rate : 4 549 kb/s
Width : 1 280 pixels
Height : 544 pixels
Display aspect ratio : 2.35:1
Frame rate mode : Constant
Frame rate : 23.976 (24000/1001) FPS
Color space : YUV
Chroma subsampling : 4:2:0
Bit depth : 8 bits
Scan type : Progressive
Bits/(Pixel*Frame) : 0.272
Stream size : 2.58 GiB (86%)
Title : Career Opportunities / Возможности карьеры / Как делать карьеру (1991)
Writing library : x264 core 148 r2744 b97ae06
Encoding settings : cabac=1 / ref=12 / deblock=1:-3:-3 / analyse=0x3:0x133 / me=umh / subme=11 / psy=1 / psy_rd=1.00:0.00 / mixed_ref=1 / me_range=32 / chroma_me=1 / trellis=2 / 8x8dct=1 / cqm=0 / deadzone=21,11 / fast_pskip=1 / chroma_qp_offset=-2 / threads=6 / lookahead_threads=1 / sliced_threads=0 / nr=0 / decimate=1 / interlaced=0 / bluray_compat=0 / constrained_intra=0 / bframes=16 / b_pyramid=2 / b_adapt=2 / b_bias=0 / direct=3 / weightb=1 / open_gop=0 / weightp=2 / keyint=240 / keyint_min=23 / scenecut=40 / intra_refresh=0 / rc_lookahead=60 / rc=2pass / mbtree=1 / bitrate=4549 / ratetol=1.0 / qcomp=0.60 / qpmin=0 / qpmax=69 / qpstep=4 / cplxblur=20.0 / qblur=0.5 / vbv_maxrate=50000 / vbv_bufsize=62500 / nal_hrd=none / filler=0 / ip_ratio=1.40 / aq=1:1.00
Language : English
Default : Yes
Forced : No

Audio #1
ID : 2
Format : AC-3
Format/Info : Audio Coding 3
Codec ID : A_AC3
Duration : 1 h 22 min
Bit rate mode : Constant
Bit rate : 192 kb/s
Channel(s) : 2 channels
Channel positions : Front: L R
Sampling rate : 48.0 kHz
Frame rate : 31.250 FPS (1536 SPF)
Bit depth : 16 bits
Compression mode : Lossy
Stream size : 114 MiB (4%)
Title : MVO (Russian) ТК Россия
Language : Russian
Service kind : Complete Main
Default : Yes
Forced : No

Audio #2
ID : 3
Format : AC-3
Format/Info : Audio Coding 3
Codec ID : A_AC3
Duration : 1 h 22 min
Bit rate mode : Constant
Bit rate : 192 kb/s
Channel(s) : 2 channels
Channel positions : Front: L R
Sampling rate : 48.0 kHz
Frame rate : 31.250 FPS (1536 SPF)
Bit depth : 16 bits
Compression mode : Lossy
Stream size : 114 MiB (4%)
Title : AVO (А.Михалёв)
Language : Russian
Service kind : Complete Main
Default : No
Forced : No

Audio #3
ID : 4
Format : E-AC-3
Format/Info : Enhanced Audio Coding 3
Codec ID : A_EAC3
Duration : 1 h 22 min
Bit rate mode : Constant
Bit rate : 224 kb/s
Channel(s) : 2 channels
Channel positions : Front: L R
Sampling rate : 48.0 kHz
Frame rate : 187.500 FPS (256 SPF)
Compression mode : Lossy
Stream size : 133 MiB (4%)
Title : Original (English)
Language : English
Service kind : Complete Main
Default : No
Forced : No

Text
ID : 5
Format : UTF-8
Codec ID : S_TEXT/UTF8
Codec ID/Info : UTF-8 Plain Text
Title : Eng
Language : English
Default : No
Forced : No

Menu
00:00:00.000 : en:An Assassination
00:01:58.000 : en:The Town Liar (Main Titles)
00:05:39.000 : en:Fired Again
00:09:43.000 : en:The Target Team
00:13:43.000 : en:Josie at Home
00:16:41.000 : en:A Limo to Work
00:20:14.000 : en:Are You a Slacker?
00:23:03.000 : en:You're Locking Me In?
00:30:31.000 : en:Are You Alright?
00:40:19.000 : en:Do You Hear Me?
00:48:14.000 : en:Would You Go Somewhere with Me?
00:51:56.000 : en:pay Back
00:55:22.000 : en:Late Night Visitors
00:59:53.000 : en:Confrontation
01:06:24.000 : en:The Power of Speech
01:08:39.000 : en:One Good Lookin' Ball of Trouble
01:14:01.000 : en:Turning Tables
01:17:34.000 : en:So Cool
01:18:47.000 : en:End Titles
 

Вложения

  • 15,9 KB Просмотры: 1
    Личеров 0
    Сидеров 0
    Файлов 1
    Объем 3 GB

Привет!

Мы группа людей которые решили помочь другим в решении их проблем, а так же пользователям с поиском самых свежих и качественных инфопродуктов. За 4 с небольшим месяца мы создали этот форум на который заходят ежедневно тысячи человек и посещаемость постоянно растёт. Мы создали панель лицензирования для защиты PHP скриптов от воровства и SEO панель для мониторинга наших сайтов и выбора верной стратегии их развития. Мы надеемся что то что мы создали пригодится Вам и возможно Вы поможете нам развиваться и совершенствоваться вместе с Вами.

Статистика форума

Темы
410.952
Сообщения
469.378
Пользователи
88.412
Новый пользователь
Anamso

Приложения форума для iOS и Android


У ркн там нет власти ;)
Приватные разговоры
Помощь Пользователи
    Вы не присоединились ни к одной комнате.