За последнюю неделю опубликовано 15 новых материалов.
Инструкция новичку Путеводитель по форуму Прокси для Telegram Показать подсказки , это бомба!

Скачать Восхождение Героя щита / Tate no Yuusha no Nariagari [S01] (2019) BDRip от Stranik 2.0 | AniLibria бесплатно через торрент

  • Поучаствуй (в качестве покупателя) в любых пяти совместных покупках (кроме завершённых и "Моментальных") и получи группу "Новичок" навсегда -> ссылка на раздел
  • Получай до 480 рублей за каждого приглашенного пользователя!
    представляем Вам очередное расширение партнерской программы, подробности описаны тут -> ссылка
  • 90% материалов доступно к скачиванию после простой регистрации!
    Если же ты хочешь скачивать материалы без требования оставлять отзывы то получи группу "Новичок", 10 способов повышения описаны тут -> ссылка
  • К сожалению количество битых ссылок растет и мы уже не можем их оперативно восстанавливать поэтому просим помощи у каждого нашего пользователя.
    С сегодняшнего дня, за каждую восстановленную ссылку мы заплатим Вам.
    Подробнее тут -> ссылка
  • Перенесем твои заслуги с другого ресурса!
    Мы понимаем как сложно прокачивать аккаунты на форумах, вроде раскачал аккаунт, а тут появляется ресурс в 100 раз круче но тоже с системой прокачки и снова качать аккаунт...
    Предлагаем вам перенести Ваши заслуги на другом подобном ресурсе к нам.
    Подробности описаны тут -> ссылка
  • Вы можете получать по 2.5% с каждой покупки и продажи на маркете! Подробности в теме Партнёрская программа

Torrent_Bot

Торрент-Бот
Бот форума
4 Окт 2016
122
116
20



Информация о фильме

Название : Восхождение Героя щита
Оригинальное название : Tate no Yuusha no Nariagari / 盾の勇者の成り上がり
Год выхода : 2019
Тип: TV
Жанр :Приключения, фэнтези
Режиссер : Або Такао


Описание : Наофуми Иватани — самый обычный, ничем не примечательный студент. Точнее, он был им — ровно до тех пор, пока его вместе с ещё тремя юношами не призвали в иной мир. Мелромарк нуждается в героях, ведь грядут «волны» — страшные катаклизмы, которые сметут всё живое на своём пути. Казалось бы, теперь-то Наофуми заживёт, вот только... Мало того, что стал Героем Щита и не получил никакого оружия, так и судьба подготовила ему серьёзный вызов — предательство едва обретённого товарища. Гонимый и презираемый всеми, он клянётся отомстить всем тем, кто превратил его жизнь в ад.
© crunchyroll


world-art | MyAnimeList | Офиц. Сайт


Страна : Япония
Производство : Kinema Citrus
Продолжительность : Эп. 01 ~00:47:00, 24 эп по ~00:24:00 мин.
Перевод: Любительский (многоголосый, закадровый)

Перевод:

Русские субтитры:
Переводчик: Crunchyroll (Надписи+диалоги)

Озвучка:AniLibria
- Многоголосая: Ados (эп.01, 03, 04, 06, 08-25), Amikiri, December (эп.01-12), Hekomi (эп.02-25), Sharon




Автор рипа: Странник 2.0


Файл
Качество: BDRip (исходник: BDRemux, спасибо antiBILLotic)
Тип релиза: Полухардсаб (Надписи)
Формат видео: AVI
Наличие линковки: Нет

Видео: XviD, 720x400 (16:9), 1650 Кбит/с, 23.976 fps, 8bit
Аудио 1: Русский, AC3, 192 Кбит/с, 48.0 KHz, 2 ch (в составе контейнера)
Аудио 2: Японский, AC3, 192 Кбит/с, 48.0 KHz, 2 ch (в составе контейнера)
Субтитры (srt): Русские [диалоги] (внешними файлами)

Список эпизодов
01. Герой щита / The Shield Hero
02. Рабыня / The Slave Girl
03. Бедственная Волна / Wave of Catastrophe
04. Колыбельная на рассвете / Lullaby at Dawn
05. Фиро / Filo
06. Новый спутник / A New Comrade
07. Святой на Божественной Птице / The Savior of the Heavenly Fowl
08. Проклятье щита / Curse Shield
09. Мелти / Melty
10. Посреди суматохи / In the Midst of Turmoil
11. Возвращение Бедствия / Catastrophe Returns
12. Черноволосая чужеземка / The Raven Invader
13. Демон щита / The Devil of the Shield
14. Незабываемое / Everlasting Memory
15. Рафталия / Raphtalia
16. Королева филориалов / Filolial Queen
17. Обещание / A Promise Made
18. Связанный заговора / A Conspiracy Linked
19. Четыре святых героя / The Four Cardinal Heroes
20. Битва добра со злом / Battle of Good and Evil
21. Возвращение Героя / Naofumi`s Triumphant Return
22. Совет Четырех Героев / Four Heroes Council
23. Остров Кальмира / Cal Mira Archipelago
24. Защитники другого мира / Guardians of Another World
25. Восхождение героя щита / The Rising of the Shield Hero
Скриншоты






MediaInfo
General
Complete name : E:/Torrent_2/Tate no Yuusha no Nariagari (2019, XviD BDRip, RUS JAP+SUB)/[Strannik 2.0] Tate no Yuusha no Nariagari - 01 (BDRip) [AniLibria].avi
Format : AVI
Format/Info : Audio Video Interleave
File size : 694 MiB
Duration : 47mn 22s
Overall bit rate : 2 048 Kbps
Writing application : VirtualDubMod 1.5.10.3 (build 2550/release)
Writing library : VirtualDubMod build 2550/release

Video #0
ID : 0
Format : MPEG-4 Visual
Format profile : Advanced Simple@L5
Format settings, BVOP : 2
Format settings, QPel : No
Format settings, GMC : No warppoints
Format settings, Matrix : Custom
Codec ID : XVID
Codec ID/Hint : XviD
Duration : 47mn 22s
Bit rate : 1 650 Kbps
Width : 720 pixels
Height : 400 pixels
Display aspect ratio : 16:9
Frame rate : 23.976 fps
Color space : YUV
Chroma subsampling : 4:2:0
Bit depth : 8 bits
Scan type : Progressive
Compression mode : Lossy
Bits/(Pixel*Frame) : 0.239
Stream size : 559 MiB (81%)
Writing library : XviD 67

Audio #1
ID : 1
Format : AC-3
Format/Info : Audio Coding 3
Mode extension : CM (complete main)
Format settings, Endianness : Big
Codec ID : 2000
Duration : 47mn 21s
Bit rate mode : Constant
Bit rate : 192 Kbps
Channel(s) : 2 channels
Channel positions : Front: L R
Sampling rate : 48.0 KHz
Bit depth : 16 bits
Compression mode : Lossy
Stream size : 65.0 MiB (9%)
Alignment : Split accross interleaves
Interleave, duration : 42 ms (1.00 video frame)
Interleave, preload duration : 500 ms

Audio #2
ID : 2
Format : AC-3
Format/Info : Audio Coding 3
Mode extension : CM (complete main)
Format settings, Endianness : Big
Codec ID : 2000
Duration : 47mn 22s
Bit rate mode : Constant
Bit rate : 192 Kbps
Channel(s) : 2 channels
Channel positions : Front: L R
Sampling rate : 48.0 KHz
Bit depth : 16 bits
Compression mode : Lossy
Stream size : 65.0 MiB (9%)
Alignment : Split accross interleaves
Interleave, duration : 42 ms (1.00 video frame)
Interleave, preload duration : 500 ms




 

Вложения

  • 29 KB Просмотры: 0
    Личеров 0
    Сидеров 0
    Файлов 50
    Объем 8,8 GB

Привет!

Мы группа людей которые решили помочь другим в решении их проблем, а так же пользователям с поиском самых свежих и качественных инфопродуктов. За 4 с небольшим месяца мы создали этот форум на который заходят ежедневно тысячи человек и посещаемость постоянно растёт. Мы создали панель лицензирования для защиты PHP скриптов от воровства и SEO панель для мониторинга наших сайтов и выбора верной стратегии их развития. Мы надеемся что то что мы создали пригодится Вам и возможно Вы поможете нам развиваться и совершенствоваться вместе с Вами.

Статистика форума

Темы
385.059
Сообщения
430.445
Пользователи
63.125
Новый пользователь
Гюзель

Приложения форума для iOS и Android


У ркн там нет власти ;)
Приватные разговоры
Помощь Пользователи
    Вы не присоединились ни к одной комнате.