За последнюю неделю опубликовано 57 новых материалов.
Инструкция новичку Путеводитель по форуму Прокси для Telegram Показать подсказки , это бомба!

Скачать Восход Эдерлези / Нимани / A.I. Rising (2018) BDRip 1080p | P | iTunes бесплатно через торрент

  • Поучаствуй (в качестве покупателя) в любых пяти совместных покупках (кроме завершённых и "Моментальных") и получи группу "Новичок" навсегда -> ссылка на раздел
  • Получай до 480 рублей за каждого приглашенного пользователя!
    представляем Вам очередное расширение партнерской программы, подробности описаны тут -> ссылка
  • 90% материалов доступно к скачиванию после простой регистрации!
    Если же ты хочешь скачивать материалы без требования оставлять отзывы то получи группу "Новичок", 10 способов повышения описаны тут -> ссылка
  • К сожалению количество битых ссылок растет и мы уже не можем их оперативно восстанавливать поэтому просим помощи у каждого нашего пользователя.
    С сегодняшнего дня, за каждую восстановленную ссылку мы заплатим Вам.
    Подробнее тут -> ссылка
  • Перенесем твои заслуги с другого ресурса!
    Мы понимаем как сложно прокачивать аккаунты на форумах, вроде раскачал аккаунт, а тут появляется ресурс в 100 раз круче но тоже с системой прокачки и снова качать аккаунт...
    Предлагаем вам перенести Ваши заслуги на другом подобном ресурсе к нам.
    Подробности описаны тут -> ссылка
  • Вы можете получать по 2.5% с каждой покупки и продажи на маркете! Подробности в теме Партнёрская программа
Если Вы не хотите скачивать, Вы всегда можетепосмотретьонлайн, просто нажмите кнопку ниже :

Открыть плеер

Torrent_Bot

Торрент-Бот
Бот форума
4 Окт 2016
92
163
20


Информация о фильме
Название: Восход Эдерлези / Нимани
Оригинальное название: A.I. Rising
Год выхода: 2018
Жанр: Фантастика, драма, мелодрама
Режиссер: Лазар Бодрожа
В ролях: Себастьян Кавацца, Стоя, Маруша Майер, Кирсти Бестерман

О фильме:
События происходят в недалеком будущем. Эдерлези — многонациональная корпорация, которая готовится к отправке одиночной миссии к звездной системе Альфа Центавра. Опытный космонавт Милютин, выходец из футуристического Советского союза, получает должность единственного пилота. Вместе с ним в дальнее путешествие отправляется андроид Нимани, запрограммированный выполнять желания космонавта и помогать ему в работе. Имея негативный опыт общения с женщинами, Милютин противится решению начальства, но во время полета неожиданно влюбляется в андроида...




Страна: Сербия
Студия: Film Center Serbia, Mir Media Group
Продолжительность: 01:26:23
Перевод: Профессиональный многоголосый

Файл
Кодек: x.264
Качество: BDRip 1080p
Видео: MPEG-4 AVC, 10.2 Mбит/с, 1920x720, 23.976 кадр/с
Аудио #1: Русский (АС3, 6 ch, 384 Кбит/с, 48.0 KHz) Профессиональный (многоголосый, закадровый) iTunes
Аудио #2: Русский (АС3, 6 ch, 448 Кбит/с, 48.0 KHz) Профессиональный (многоголосый, закадровый) HDRezka Studio
Аудио #3: Русский (АС3, 6 ch, 448 Кбит/с, 48.0 KHz) Профессиональный (многоголосый, закадровый) СВ Студия
Аудио #4: Английский (DTS, 6 ch, 1509 Кбит/с, 48.0 KHz)
Субтитры: Русские (Forced), английские
► Без Рекламы!
Трейлер
MediaInfo
Источник: A.I.Rising.2018.BDRemux.1080p
General
Unique ID : 196553287294612607391569899992795658719 (0x93DEC9423AF4E36AA3D21E14BF3139DF)
Complete name : A.I.Rising.2018.BDRip.1080p.mkv
Format : Matroska
Format version : Version 4
File size : 7.84 GiB
Duration : 1 h 26 min
Overall bit rate : 13.0 Mb/s
Encoded date : UTC 2020-08-24 22:02:43
Writing application : mkvmerge v7.1.0 ('Good Love') 64bit built on Jul 27 2014 13:06:55
Writing library : libebml v1.3.0 + libmatroska v1.4.1

Video
ID : 1
Format : AVC
Format/Info : Advanced Video Codec
Format profile : [email protected]
Format settings : CABAC / 5 Ref Frames
Format settings, CABAC : Yes
Format settings, Reference fra : 5 frames
Codec ID : V_MPEG4/ISO/AVC
Duration : 1 h 26 min
Bit rate : 10.2 Mb/s
Width : 1 920 pixels
Height : 720 pixels
Display aspect ratio : 2.667
Frame rate mode : Constant
Frame rate : 23.976 (24000/1001) FPS
Color space : YUV
Chroma subsampling : 4:2:0
Bit depth : 8 bits
Scan type : Progressive
Bits/(Pixel*Frame) : 0.308
Stream size : 6.15 GiB (79%)
Writing library : x264 core 157 r2958 57baac4
Encoding settings : cabac=1 / ref=5 / deblock=1:-3:-3 / analyse=0x3:0x113 / me=umh / subme=11 / psy=1 / psy_rd=1.00:0.00 / mixed_ref=1 / me_range=48 / chroma_me=1 / trellis=2 / 8x8dct=1 / cqm=0 / deadzone=21,11 / fast_pskip=1 / chroma_qp_offset=-2 / threads=18 / lookahead_threads=4 / sliced_threads=0 / nr=0 / decimate=1 / interlaced=0 / bluray_compat=0 / constrained_intra=0 / bframes=10 / b_pyramid=2 / b_adapt=2 / b_bias=0 / direct=3 / weightb=1 / open_gop=0 / weightp=2 / keyint=240 / keyint_min=24 / scenecut=40 / intra_refresh=0 / rc_lookahead=60 / rc=2pass / mbtree=1 / bitrate=10200 / ratetol=1.0 / qcomp=0.60 / qpmin=0 / qpmax=69 / qpstep=4 / cplxblur=20.0 / qblur=0.5 / ip_ratio=1.40 / aq=1:1.00
Language : English
Default : Yes
Forced : No

Audio #1
ID : 2
Format : AC-3
Format/Info : Audio Coding 3
Commercial name : Dolby Digital
Codec ID : A_AC3
Duration : 1 h 26 min
Bit rate mode : Constant
Bit rate : 384 kb/s
Channel(s) : 6 channels
Channel layout : L R C LFE Ls Rs
Sampling rate : 48.0 kHz
Frame rate : 31.250 FPS (1536 SPF)
Compression mode : Lossy
Stream size : 237 MiB (3%)
Title : iTunes
Language : Russian
Service kind : Complete Main
Default : Yes
Forced : No

Audio #2
ID : 3
Format : AC-3
Format/Info : Audio Coding 3
Commercial name : Dolby Digital
Codec ID : A_AC3
Duration : 1 h 26 min
Bit rate mode : Constant
Bit rate : 448 kb/s
Channel(s) : 6 channels
Channel layout : L R C LFE Ls Rs
Sampling rate : 48.0 kHz
Frame rate : 31.250 FPS (1536 SPF)
Compression mode : Lossy
Stream size : 277 MiB (3%)
Title : MVO | HDRezka Studio
Language : Russian
Service kind : Complete Main
Default : No
Forced : No

Audio #3
ID : 4
Format : AC-3
Format/Info : Audio Coding 3
Commercial name : Dolby Digital
Codec ID : A_AC3
Duration : 1 h 26 min
Bit rate mode : Constant
Bit rate : 448 kb/s
Channel(s) : 6 channels
Channel layout : L R C LFE Ls Rs
Sampling rate : 48.0 kHz
Frame rate : 31.250 FPS (1536 SPF)
Compression mode : Lossy
Stream size : 277 MiB (3%)
Title : MVO | СВ Студия
Language : Russian
Service kind : Complete Main
Default : No
Forced : No

Audio #4
ID : 5
Format : DTS
Format/Info : Digital Theater Systems
Codec ID : A_DTS
Duration : 1 h 26 min
Bit rate mode : Constant
Bit rate : 1 509 kb/s
Channel(s) : 6 channels
Channel layout : C L R Ls Rs LFE
Sampling rate : 48.0 kHz
Frame rate : 93.750 FPS (512 SPF)
Bit depth : 24 bits
Compression mode : Lossy
Stream size : 932 MiB (12%)
Language : English
Default : No
Forced : No

Text #1
ID : 6
Format : UTF-8
Codec ID : S_TEXT/UTF8
Codec ID/Info : UTF-8 Plain Text
Duration : 1 h 11 min
Bit rate : 3 b/s
Count of elements : 40
Stream size : 1.69 KiB (0%)
Title : Forced
Language : Russian
Default : Yes
Forced : No

Text #2
ID : 7
Format : UTF-8
Codec ID : S_TEXT/UTF8
Codec ID/Info : UTF-8 Plain Text
Duration : 1 h 18 min
Bit rate : 43 b/s
Count of elements : 706
Stream size : 24.9 KiB (0%)
Title : Full
Language : English
Default : No
Forced : No

Text #3
ID : 8
Format : UTF-8
Codec ID : S_TEXT/UTF8
Codec ID/Info : UTF-8 Plain Text
Duration : 1 h 25 min
Bit rate : 43 b/s
Count of elements : 771
Stream size : 27.2 KiB (0%)
Title : SDH
Language : English
Default : No
Forced : No

Menu
00:00:00.000 : :Chapter 01
00:00:13.096 : :Chapter 02
00:08:11.365 : :Chapter 03
00:16:04.171 : :Chapter 04
00:23:44.214 : :Chapter 05
00:31:45.778 : :Chapter 06
00:39:50.513 : :Chapter 07
00:48:04.381 : :Chapter 08
00:54:10.747 : :Chapter 09
01:00:12.609 : :Chapter 10
01:05:46.442 : :Chapter 11
01:14:37.264 : :Chapter 12
01:23:00.141 : :Chapter 13
Скриншоты
 

Вложения

  • 20,5 KB Просмотры: 0
    Личеров 0
    Сидеров 0
    Файлов 1
    Объем 7,8 GB

Привет!

Мы группа людей которые решили помочь другим в решении их проблем, а так же пользователям с поиском самых свежих и качественных инфопродуктов. За 4 с небольшим месяца мы создали этот форум на который заходят ежедневно тысячи человек и посещаемость постоянно растёт. Мы создали панель лицензирования для защиты PHP скриптов от воровства и SEO панель для мониторинга наших сайтов и выбора верной стратегии их развития. Мы надеемся что то что мы создали пригодится Вам и возможно Вы поможете нам развиваться и совершенствоваться вместе с Вами.

Статистика форума

Темы
406.698
Сообщения
465.162
Пользователи
84.787
Новый пользователь
Freckle

Приложения форума для iOS и Android


У ркн там нет власти ;)
Приватные разговоры
Помощь Пользователи
    Вы не присоединились ни к одной комнате.