За последнюю неделю опубликовано 66 новых материалов.
Инструкция новичку Путеводитель по форуму Прокси для Telegram Показать подсказки , это бомба!

Скачать Восставший из ада 8: Адский мир / Hellraiser: Hellworld (2005) BDRemux 1080p | P, A бесплатно через торрент

  • Поучаствуй (в качестве покупателя) в любых пяти совместных покупках (кроме завершённых и "Моментальных") и получи группу "Новичок" навсегда -> ссылка на раздел
  • Получай до 480 рублей за каждого приглашенного пользователя!
    представляем Вам очередное расширение партнерской программы, подробности описаны тут -> ссылка
  • 90% материалов доступно к скачиванию после простой регистрации!
    Если же ты хочешь скачивать материалы без требования оставлять отзывы то получи группу "Новичок", 10 способов повышения описаны тут -> ссылка
  • К сожалению количество битых ссылок растет и мы уже не можем их оперативно восстанавливать поэтому просим помощи у каждого нашего пользователя.
    С сегодняшнего дня, за каждую восстановленную ссылку мы заплатим Вам.
    Подробнее тут -> ссылка
  • Перенесем твои заслуги с другого ресурса!
    Мы понимаем как сложно прокачивать аккаунты на форумах, вроде раскачал аккаунт, а тут появляется ресурс в 100 раз круче но тоже с системой прокачки и снова качать аккаунт...
    Предлагаем вам перенести Ваши заслуги на другом подобном ресурсе к нам.
    Подробности описаны тут -> ссылка
  • Вы можете получать по 2.5% с каждой покупки и продажи на маркете! Подробности в теме Партнёрская программа
Если Вы не хотите скачивать, Вы всегда можетепосмотретьонлайн, просто нажмите кнопку ниже :

Открыть плеер

Torrent_Bot

Торрент-Бот
Бот форума
4 Окт 2016
82
186
20
Информация о фильме
Название: Восставший из ада 8: Адский мир
Оригинальное название: Hellraiser: Hellworld
Год выхода: 2005
Жанр: ужасы, триллер
Режиссер: Рик Бота
В ролях: Лэнс Хенриксен, Кэтрин Уинник, Кристофер Жако, Хари Пэйтон, Генри Кавилл, Анна Толпатт, Виктор МакГуайр, Даг Брэдли, Стелиан Уриан, Магдалена Тун

О фильме:
Группа подростков, увлечённых онлайн-игрой Hellraiser и достигших в ней определённых успехов, получает от сайта Hellworld.com приглашение на закрытую вечеринку. Попав туда, ребята понимают, что совершили ужасную ошибку, и теперь их любимая игра стала кошмарной реальностью…



Страна: США, Румыния
Продолжительность: 01:34:58
Перевод: Профессиональный (многоголосый закадровый), авторский

Файл
Кодек: x.264
Качество: BDRemux 1080p.
Видео: MPEG-4 AVC, 13.9 Мбит/с, 1920x1080, 23.976 fps
Звук:
Аудио 1: Русский Dolby AC3, 48000Hz, 2ch, 192kbps - Многоголосый (Элегия)
Аудио 2: Русский Dolby AC3, 48000Hz, 6ch, 448kbps - Одноголосый (А. Гаврилов)
Аудио 3: Русский Dolby AC3, 48000Hz, 2ch, 192kbps - Одноголосый (Е. Гранкин)
Аудио 4: Английский DTS-HD Master Audio 5.1 / 48 kHz / 3302 kbps / 24-bit (DTS Core: 5.1 / 48 kHz / 1510 kbps / 24-bit)

Исходник с зарубежного трекера.

Большое спасибо GoldDust за помощь.
Субтитры: Английские
Сэмпл

Скриншоты
MI
General
Unique ID : 222938173190503051490360524552093446481 (0xA7B85491C8354949997047620A9E3151)
Complete name : D:REMUXHELLRAISER 8Hellraiser.Hellworld.2005.BD-Remux 1080p.mkv
Format : Matroska
Format version : Version 4 / Version 2
File size : 11.2 GiB
Duration : 1h 34mn
Overall bit rate mode : Variable
Overall bit rate : 16.8 Mbps
Encoded date : UTC 2018-08-24 12:32:28
Writing application : mkvmerge v6.1.0 ('Old Devil') built on Mar 2 2013 14:32:37
Writing library : libebml v1.3.0 + libmatroska v1.4.0

Video
ID : 1
Format : AVC
Format/Info : Advanced Video Codec
Format profile : [email protected]
Format settings, CABAC : Yes
Format settings, ReFrames : 4 frames
Format settings, GOP : M=3, N=24
Codec ID : V_MPEG4/ISO/AVC
Duration : 1h 34mn
Bit rate mode : Variable
Bit rate : 13.9 Mbps
Maximum bit rate : 38.0 Mbps
Width : 1 920 pixels
Height : 1 080 pixels
Display aspect ratio : 16:9
Frame rate : 23.976 fps
Standard : NTSC
Color space : YUV
Chroma subsampling : 4:2:0
Bit depth : 8 bits
Scan type : Progressive
Bits/(Pixel*Frame) : 0.279
Stream size : 9.20 GiB (82%)
Language : English
Default : Yes
Forced : No

Audio #1
ID : 2
Format : AC-3
Format/Info : Audio Coding 3
Mode extension : CM (complete main)
Codec ID : A_AC3
Duration : 1h 34mn
Bit rate mode : Constant
Bit rate : 192 Kbps
Channel(s) : 2 channels
Channel positions : Front: L R
Sampling rate : 48.0 KHz
Bit depth : 16 bits
Compression mode : Lossy
Stream size : 130 MiB (1%)
Title : Многоголосый (Элегия)
Language : Russian
Default : Yes
Forced : No

Audio #2
ID : 3
Format : AC-3
Format/Info : Audio Coding 3
Mode extension : CM (complete main)
Codec ID : A_AC3
Duration : 1h 34mn
Bit rate mode : Constant
Bit rate : 448 Kbps
Channel(s) : 6 channels
Channel positions : Front: L C R, Side: L R, LFE
Sampling rate : 48.0 KHz
Bit depth : 16 bits
Compression mode : Lossy
Stream size : 304 MiB (3%)
Title : А.Гаврилов
Language : Russian
Default : No
Forced : No

Audio #3
ID : 4
Format : AC-3
Format/Info : Audio Coding 3
Mode extension : CM (complete main)
Codec ID : A_AC3
Duration : 1h 34mn
Bit rate mode : Constant
Bit rate : 192 Kbps
Channel(s) : 2 channels
Channel positions : Front: L R
Sampling rate : 48.0 KHz
Bit depth : 16 bits
Compression mode : Lossy
Stream size : 130 MiB (1%)
Title : Е.Гранкин
Language : Russian
Default : No
Forced : No

Audio #4
ID : 5
Format : DTS
Format/Info : Digital Theater Systems
Format profile : MA / Core
Codec ID : A_DTS
Duration : 1h 34mn
Bit rate mode : Variable
Bit rate : 1 792 Kbps / 1 510 Kbps
Channel(s) : 6 channels
Channel positions : Front: L C R, Side: L R, LFE
Sampling rate : 48.0 KHz
Bit depth : 16 bits
Compression mode : Lossless / Lossy
Language : English
Default : No
Forced : No

Text
ID : 6
Format : UTF-8
Codec ID : S_TEXT/UTF8
Codec ID/Info : UTF-8 Plain Text
Language : English
Default : No
Forced : No

Menu
00:00:00.000 : en:Chapter 01
00:06:25.676 : en:Chapter 02
00:12:07.059 : en:Chapter 03
00:18:48.418 : en:Chapter 04
00:28:22.867 : en:Chapter 05
00:33:46.482 : en:Chapter 06
00:39:42.296 : en:Chapter 07
00:45:03.117 : en:Chapter 08
00:49:32.678 : en:Chapter 09
00:54:38.900 : en:Chapter 10
00:59:46.082 : en:Chapter 11
01:05:59.830 : en:Chapter 12
01:14:35.721 : en:Chapter 13
01:22:29.402 : en:Chapter 14
01:26:03.283 : en:Chapter 15
 

Вложения

  • 56,7 KB Просмотры: 1
    Личеров 0
    Сидеров 0
    Файлов 1
    Объем 11,2 GB

Привет!

Мы группа людей которые решили помочь другим в решении их проблем, а так же пользователям с поиском самых свежих и качественных инфопродуктов. За 4 с небольшим месяца мы создали этот форум на который заходят ежедневно тысячи человек и посещаемость постоянно растёт. Мы создали панель лицензирования для защиты PHP скриптов от воровства и SEO панель для мониторинга наших сайтов и выбора верной стратегии их развития. Мы надеемся что то что мы создали пригодится Вам и возможно Вы поможете нам развиваться и совершенствоваться вместе с Вами.

Статистика форума

Темы
412.160
Сообщения
471.186
Пользователи
91.628
Новый пользователь
Liya868

Приложения форума для iOS и Android


У ркн там нет власти ;)
Приватные разговоры
Помощь Пользователи
    Вы не присоединились ни к одной комнате.