За последнюю неделю опубликовано 30 новых материалов.
Инструкция новичку Путеводитель по форуму Прокси для Telegram Показать подсказки , это бомба!

Скачать Воспоминания об убийстве / Memories of Murder / Salinui chueok (2003) BDRip 1080p | iTunes бесплатно через торрент

  • Поучаствуй (в качестве покупателя) в любых пяти совместных покупках (кроме завершённых и "Моментальных") и получи группу "Новичок" навсегда -> ссылка на раздел
  • Получай до 480 рублей за каждого приглашенного пользователя!
    представляем Вам очередное расширение партнерской программы, подробности описаны тут -> ссылка
  • 90% материалов доступно к скачиванию после простой регистрации!
    Если же ты хочешь скачивать материалы без требования оставлять отзывы то получи группу "Новичок", 10 способов повышения описаны тут -> ссылка
  • К сожалению количество битых ссылок растет и мы уже не можем их оперативно восстанавливать поэтому просим помощи у каждого нашего пользователя.
    С сегодняшнего дня, за каждую восстановленную ссылку мы заплатим Вам.
    Подробнее тут -> ссылка
  • Перенесем твои заслуги с другого ресурса!
    Мы понимаем как сложно прокачивать аккаунты на форумах, вроде раскачал аккаунт, а тут появляется ресурс в 100 раз круче но тоже с системой прокачки и снова качать аккаунт...
    Предлагаем вам перенести Ваши заслуги на другом подобном ресурсе к нам.
    Подробности описаны тут -> ссылка
  • Вы можете получать по 2.5% с каждой покупки и продажи на маркете! Подробности в теме Партнёрская программа
Если Вы не хотите скачивать, Вы всегда можетепосмотретьонлайн, просто нажмите кнопку ниже :

Открыть плеер

Torrent_Bot

Торрент-Бот
Бот форума
4 Окт 2016
93
160
20



Информация о фильме
Название: Воспоминания об убийстве
Оригинальное название: Memories of Murder / Salinui chueok
Год выхода: 2003
Жанр: детектив, криминал, драма, триллер
Режиссер: Пон Джун-хо
В ролях: Сон Кан-хо, Ким Сан-гён, Ким Рве-ха, Сон Джэ-хо, Пён Хи-бон, Ко Со-хи, Рю Тхэ-хо, Пак Но-щик, Пак Хэ-иль, Чон Ми-сон

О фильме: В 1986 году в корейском провинциальном городе Хвасон две местные женщины были убиты одним и тем же извращённым способом. Детектив Пак Ту-ман и его помощник Чо Ён-гу со всем возможным рвением пытаются найти убийцу. Точнее — заставить признаться в содеянном любого подозреваемого, и делают это самыми жестокими методами. К ним на помощь прибывает детектив Со Тхэ-юн из Сеула, чтобы провести расследование и вычислить маньяка на основе улик и доказательств. Тем временем убийства продолжаются.



Страна: Южная Корея
Студия: CJ Entertainment, Muhan Investment
Продолжительность: 02:11:08
Перевод: Профессиональный (дублированный) iTunes

Файл
Качество: BDRip 1080p | WIDDER
Формат: Matroska
Видео: 1920x1040 at 23.976 fps, x264, ~10000 kbps avg
Аудио: Russian: 48 kHz, AC3, 3/2 (L,C,R,l,r) + LFE ch, ~384 kbps avg |Дубляж, iTunes|
Субтитры: Russian (Full), English (Full)

***Сохранены оригинальные главы как на Blu-ray

Знаете ли вы, что...
Фильм занимает 15-е место в двадцатке лучших фильмов с 1992 года по версии Квентина Тарантино.
В одной из сцен, вырезанных из фильма при монтаже, детектив идёт в квартал красных фонарей и задаёт вопросы, касающиеся расследования, делающей ему массаж девушке. Сцену снимали в настоящем квартале красных фонарей с разрешения сутенёра.
Чтобы показать, как сложное дело сказывается на его герое, актёр Ким Сан-гён стал меньше есть и спать. Это, разумеется, не могло не отразиться на его облике.
Режиссёр Пон Джун-хо признавался, что большое влияние на него оказала одноимённая пьеса Ким Гван-нима и графический роман Алана Мура и Эдди Кэмпбелла «Из ада».
Во время допроса Кван-хо (Пак Но-щик) полицейские смотрят телевизор. Там идёт очередной выпуск программы Susabanjang, что можно перевести как «Следственная группа». Так назывался знаменитый детективный сериал, выходивший в эфир на протяжении почти 20 лет.
Фильм основан на реальной истории о первых известных в Южной Корее серийных убийствах, которые произошли в период между 1986 и 1991 годом в городе Хвасон провинции Кёнгидо. В сентябре 2019 года личность маньяка была установлена.
MediaInfo
Общее
Уникальный идентификатор : 250626602472858484970998587985522501927 (0xBC8CED87FCBF3E01BFC532F46B72A927)
Полное имя : Memories.of.Murder.2003.х264.BDRip.1080p.mkv
Формат : Matroska
Версия формата : Version 2
Размер файла : 9,56 Гбайт
Продолжительность : 2 ч. 11 м.
Общий поток : 10,4 Мбит/сек
Название фильма : Воспоминания об убийстве / Memories of Murder (2003)
Дата кодирования : UTC 2020-05-16 10:46:19
Программа кодирования : mkvmerge v5.8.0 ('No Sleep / Pillow') built on Sep 2 2012 15:37:04
Библиотека кодирования : libebml v1.2.3 + libmatroska v1.3.0

Видео
Идентификатор : 1
Формат : AVC
Формат/Информация : Advanced Video Codec
Профиль формата : [email protected]
Настройки формата : CABAC / 4 Ref Frames
Параметр CABAC формата : Да
Параметр RefFrames формата : 4 кадра
Идентификатор кодека : V_MPEG4/ISO/AVC
Продолжительность : 2 ч. 11 м.
Битрейт : 10,1 Мбит/сек
Ширина : 1920 пикселей
Высота : 1040 пикселей
Соотношение сторон : 1,85:1
Режим частоты кадров : Постоянный
Частота кадров : 23,976 (24000/1001) кадра/сек
Цветовое пространство : YUV
Субдискретизация насыщенности : 4:2:0
Битовая глубина : 8 бит
Тип развёртки : Прогрессивная
Бит/(Пиксели*Кадры) : 0.210
Размер потока : 9,02 Гбайт (94%)
Библиотека кодирования : x264 core 129 r2245 bc13772
Настройки программы : cabac=1 / ref=4 / deblock=1:-3:-3 / analyse=0x3:0x133 / me=umh / subme=11 / psy=1 / psy_rd=1.20:0.00 / mixed_ref=1 / me_range=32 / chroma_me=1 / trellis=2 / 8x8dct=1 / cqm=0 / deadzone=21,11 / fast_pskip=0 / chroma_qp_offset=-2 / threads=16 / lookahead_threads=2 / sliced_threads=0 / nr=0 / decimate=1 / interlaced=0 / bluray_compat=0 / constrained_intra=0 / bframes=6 / b_pyramid=2 / b_adapt=2 / b_bias=0 / direct=3 / weightb=1 / open_gop=0 / weightp=2 / keyint=240 / keyint_min=23 / scenecut=40 / intra_refresh=0 / rc=2pass / mbtree=0 / bitrate=10050 / ratetol=1.0 / qcomp=0.60 / qpmin=0 / qpmax=69 / qpstep=4 / cplxblur=20.0 / qblur=0.5 / ip_ratio=1.40 / pb_ratio=1.30 / aq=2:0.80
Язык : Korean
Default : Да
Forced : Нет

Аудио
Идентификатор : 2
Формат : AC-3
Формат/Информация : Audio Coding 3
Коммерческое название : Dolby Digital
Идентификатор кодека : A_AC3
Продолжительность : 2 ч. 11 м.
Вид битрейта : Постоянный
Битрейт : 384 Кбит/сек
Каналы : 6 каналов
ChannelLayout : L R C LFE Ls Rs
Частота : 48,0 КГц
Частота кадров : 31,250 кадров/сек (1536 SPF)
Метод сжатия : С потерями
Размер потока : 360 Мбайт (4%)
Заголовок : iTunes
Язык : Russian
ServiceKind/String : Complete Main
Default : Да
Forced : Нет

Текст #1
Идентификатор : 3
Формат : UTF-8
Идентификатор кодека : S_TEXT/UTF8
Идентификатор кодека/Информация : UTF-8 Plain Text
Заголовок : Full
Язык : Russian
Default : Нет
Forced : Нет

Текст #2
Идентификатор : 4
Формат : UTF-8
Идентификатор кодека : S_TEXT/UTF8
Идентификатор кодека/Информация : UTF-8 Plain Text
Заголовок : Full
Язык : English
Default : Нет
Forced : Нет

Меню
00:00:00.000 : :Chapter 01
00:05:00.000 : :Chapter 02
00:10:00.000 : :Chapter 03
00:15:00.000 : :Chapter 04
00:20:00.000 : :Chapter 05
00:25:00.000 : :Chapter 06
00:30:00.000 : :Chapter 07
00:35:00.000 : :Chapter 08
00:40:00.000 : :Chapter 09
00:45:00.000 : :Chapter 10
00:50:00.000 : :Chapter 11
00:55:00.000 : :Chapter 12
01:00:00.000 : :Chapter 13
01:05:00.000 : :Chapter 14
01:10:00.000 : :Chapter 15
01:15:00.000 : :Chapter 16
01:20:00.000 : :Chapter 17
01:25:00.000 : :Chapter 18
01:30:00.000 : :Chapter 19
01:35:00.000 : :Chapter 20
01:40:00.000 : :Chapter 21
01:45:00.000 : :Chapter 22
01:50:00.000 : :Chapter 23
01:55:00.000 : :Chapter 24
02:00:00.000 : :Chapter 25
02:05:00.000 : :Chapter 26
02:10:00.000 : :Chapter 27
Скриншоты
 

Вложения

  • 24,8 KB Просмотры: 0
    Личеров 0
    Сидеров 0
    Файлов 1
    Объем 9,6 GB

Привет!

Мы группа людей которые решили помочь другим в решении их проблем, а так же пользователям с поиском самых свежих и качественных инфопродуктов. За 4 с небольшим месяца мы создали этот форум на который заходят ежедневно тысячи человек и посещаемость постоянно растёт. Мы создали панель лицензирования для защиты PHP скриптов от воровства и SEO панель для мониторинга наших сайтов и выбора верной стратегии их развития. Мы надеемся что то что мы создали пригодится Вам и возможно Вы поможете нам развиваться и совершенствоваться вместе с Вами.

Статистика форума

Темы
406.605
Сообщения
465.028
Пользователи
84.390
Новый пользователь
князь владимир

Приложения форума для iOS и Android


У ркн там нет власти ;)
Приватные разговоры
Помощь Пользователи
    Вы не присоединились ни к одной комнате.