За последнюю неделю опубликовано 47 новых материалов.
Инструкция новичку Путеводитель по форуму Прокси для Telegram Показать подсказки , это бомба!

Скачать Вор (1997) WEBRip-AVC от KORSAR бесплатно через торрент

  • Поучаствуй (в качестве покупателя) в любых пяти совместных покупках (кроме завершённых и "Моментальных") и получи группу "Новичок" навсегда -> ссылка на раздел
  • Получай до 480 рублей за каждого приглашенного пользователя!
    представляем Вам очередное расширение партнерской программы, подробности описаны тут -> ссылка
  • 90% материалов доступно к скачиванию после простой регистрации!
    Если же ты хочешь скачивать материалы без требования оставлять отзывы то получи группу "Новичок", 10 способов повышения описаны тут -> ссылка
  • К сожалению количество битых ссылок растет и мы уже не можем их оперативно восстанавливать поэтому просим помощи у каждого нашего пользователя.
    С сегодняшнего дня, за каждую восстановленную ссылку мы заплатим Вам.
    Подробнее тут -> ссылка
  • Перенесем твои заслуги с другого ресурса!
    Мы понимаем как сложно прокачивать аккаунты на форумах, вроде раскачал аккаунт, а тут появляется ресурс в 100 раз круче но тоже с системой прокачки и снова качать аккаунт...
    Предлагаем вам перенести Ваши заслуги на другом подобном ресурсе к нам.
    Подробности описаны тут -> ссылка
  • Вы можете получать по 2.5% с каждой покупки и продажи на маркете! Подробности в теме Партнёрская программа
Если Вы не хотите скачивать, Вы всегда можетепосмотретьонлайн, просто нажмите кнопку ниже :

Открыть плеер

Torrent_Bot

Торрент-Бот
Бот форума
4 Окт 2016
90
166
20
Жанр: Драма
Страна: Россия
Год выпуска: 1997
Продолжительность: 01:33:45
Режиссёр: Павел Чухрай
В ролях: Владимир Машков, Екатерина Редникова, Миша Филипчук, Дима Чигарев, Юрий Беляев, Амалия Мордвинова, Лидия Савченко, Анатолий Кощеев, Аня Штукатурова, Эрвант Арзуманян, Наталья Позднякова, Ольга Пашкова, Людмила Селянская, Галина Петрова, Виктор Бунаков, Юлия Артамонова, Евгений Попов

Описание: В послевоенное время, оceнью 1952 гoдa шecтилeтний Caнькa и eгo мoлoдaя мaмa, потерявшая мужа на фронте, знaкoмитcя в пoeздe c кpacивым офицером-танкистом пo имeни Toлян. Кaтя влюбляeтcя в Toлянa, и вce вмecтe oни нaчинaют жить oднoй ceмьeй. Но капитанские погоны ее избранника — всего лишь прикрытие, этoт бpaвый и oбaятeльный oфицep oкaзывaeтcя вoвce нe oтcтaвным вoeнным, a пpoфeccиoнaльным уголовником-вopoм…




Качество видео: WEBRip-AVC
Формат видео: MKV
Видео: MPEG-4 AVC, 840x648, 25 fps, ~5871 Kbps
Аудио:48 kHz, AC3 Dolby Digital, 3/2 (L,C,R,l,r) + LFE ch, ~448.00 kbps
Субтитры: Русские, английские



Инфо файл

  • x264 [info]: frame I:867 Avg QP:18.06 size:117427
    x264 [info]: frame P:33010 Avg QP:19.62 size: 63759
    x264 [info]: frame B:106765 Avg QP:21.86 size: 18836
    x264 [info]: consecutive B-frames: 1.5% 2.1% 9.0% 38.3% 24.3% 23.7% 0.7% 0.3% 0.1% 0.0%
Общее
Уникальный идентификатор : 199530188156066865749578865872276328120 (0x961C1DCD903C41EE8D4813337DD48EB8)
Полное имя : D:Вор_1997-WEBRip-AVC_KORSAR.mkv
Формат : Matroska
Версия формата : Version 2
Размер файла : 4,22 Гбайт
Продолжительность : 1 ч. 33 м.
Общий поток : 6448 Кбит/сек
Название фильма : Вор_1997-WEBRip-AVC_KORSAR
Дата кодирования : UTC 2018-07-23 15:29:37
Программа кодирования : mkvmerge v5.8.0 ('No Sleep / Pillow') built on Sep 2 2012 15:37:04
Библиотека кодирования : libebml v1.2.3 + libmatroska v1.3.0

Видео
Идентификатор : 1
Формат : AVC
Формат/Информация : Advanced Video Codec
Профиль формата : [email protected]
Параметр CABAC формата : Да
Параметр RefFrames формата : 15 кадров
Идентификатор кодека : V_MPEG4/ISO/AVC
Продолжительность : 1 ч. 33 м.
Битрейт : 5871 Кбит/сек
Ширина : 840 пикселей
Высота : 648 пикселей
Соотношение сторон : 1,296
Режим частоты кадров : Постоянный
Частота кадров : 25,000 кадров/сек
Цветовое пространство : YUV
Субдискретизация насыщенности : 4:2:0
Битовая глубина : 8 бит
Тип развёртки : Прогрессивная
Бит/(Пиксели*Кадры) : 0.431
Размер потока : 3,85 Гбайт (91%)
Библиотека кодирования : x264 core 152 r2851kMod ba24899
Настройки программы : cabac=1 / ref=15 / deblock=1:-2:-1 / analyse=0x3:0x113 / me=umh / subme=10 / psy=1 / fade_compensate=0.00 / psy_rd=1.05:0.10 / mixed_ref=1 / me_range=40 / chroma_me=1 / trellis=2 / 8x8dct=1 / cqm=0 / deadzone=21,11 / fast_pskip=1 / chroma_qp_offset=-3 / threads=12 / lookahead_threads=2 / sliced_threads=0 / nr=0 / decimate=1 / interlaced=0 / bluray_compat=0 / constrained_intra=0 / bframes=9 / b_pyramid=2 / b_adapt=2 / b_bias=0 / direct=1 / weightb=1 / open_gop=0 / weightp=2 / keyint=250 / keyint_min=25 / scenecut=40 / intra_refresh=0 / rc=crf / mbtree=0 / crf=17.8000 / qcomp=0.63 / qpmin=0 / qpmax=39 / qpstep=4 / ip_ratio=1.40 / pb_ratio=1.30 / aq=2:0.80
Язык : English
Default : Да
Forced : Нет
Цветовой диапазон : Limited
Основные цвета : BT.709
Характеристики трансфера : BT.709
Коэффициенты матрицы : BT.709

Аудио
Идентификатор : 2
Формат : AC-3
Формат/Информация : Audio Coding 3
Параметр Endianness формата : Big
Идентификатор кодека : A_AC3
Продолжительность : 1 ч. 33 м.
Вид битрейта : Постоянный
Битрейт : 448 Кбит/сек
Каналы : 6 каналов
Расположение каналов : Front: L C R, Side: L R, LFE
Частота : 48,0 КГц
Частота кадров : 31,250 кадров/сек (1536 SPF)
Битовая глубина : 16 бит
Метод сжатия : С потерями
Размер потока : 300 Мбайт (7%)
Язык : Russian
Default : Да
Forced : Нет

Текст #1
Идентификатор : 3
Формат : UTF-8
Идентификатор кодека : S_TEXT/UTF8
Идентификатор кодека/Информация : UTF-8 Plain Text
Язык : Russian
Default : Нет
Forced : Нет

Текст #2
Идентификатор : 4
Формат : UTF-8
Идентификатор кодека : S_TEXT/UTF8
Идентификатор кодека/Информация : UTF-8 Plain Text
Язык : English
Default : Нет
Forced : Нет

Меню
00:00:00.000 : en:Chapter 1
00:00:58.200 : en:Chapter 2
00:07:25.200 : en:Chapter 3
00:11:48.600 : en:Chapter 4
00:16:22.200 : en:Chapter 5
00:20:40.200 : en:Chapter 6
00:25:34.800 : en:Chapter 7
00:30:48.000 : en:Chapter 8
00:37:03.600 : en:Chapter 9
00:42:10.800 : en:Chapter 10
00:48:28.800 : en:Chapter 11
00:53:23.400 : en:Chapter 12
00:58:51.000 : en:Chapter 13
01:03:31.200 : en:Chapter 14
01:08:33.600 : en:Chapter 15
01:12:32.400 : en:Chapter 16
01:16:30.600 : en:Chapter 17
01:20:12.000 : en:Chapter 18
01:26:10.200 : en:Chapter 19
 

Вложения

  • 22,1 KB Просмотры: 1
    Личеров 0
    Сидеров 0
    Файлов 1
    Объем 4,2 GB

Привет!

Мы группа людей которые решили помочь другим в решении их проблем, а так же пользователям с поиском самых свежих и качественных инфопродуктов. За 4 с небольшим месяца мы создали этот форум на который заходят ежедневно тысячи человек и посещаемость постоянно растёт. Мы создали панель лицензирования для защиты PHP скриптов от воровства и SEO панель для мониторинга наших сайтов и выбора верной стратегии их развития. Мы надеемся что то что мы создали пригодится Вам и возможно Вы поможете нам развиваться и совершенствоваться вместе с Вами.

Статистика форума

Темы
410.885
Сообщения
469.442
Пользователи
87.879
Новый пользователь
hovixow612

Приложения форума для iOS и Android


У ркн там нет власти ;)
Приватные разговоры
Помощь Пользователи
    Вы не присоединились ни к одной комнате.