За последнюю неделю опубликовано 84 новых материалов.
Инструкция новичку Путеводитель по форуму Прокси для Telegram Показать подсказки , это бомба!

Скачать Вооружен и очень опасен (1977) DVDRip-AVC от KORSAR бесплатно через торрент

  • Поучаствуй (в качестве покупателя) в любых пяти совместных покупках (кроме завершённых и "Моментальных") и получи группу "Новичок" навсегда -> ссылка на раздел
  • Получай до 480 рублей за каждого приглашенного пользователя!
    представляем Вам очередное расширение партнерской программы, подробности описаны тут -> ссылка
  • 90% материалов доступно к скачиванию после простой регистрации!
    Если же ты хочешь скачивать материалы без требования оставлять отзывы то получи группу "Новичок", 10 способов повышения описаны тут -> ссылка
  • К сожалению количество битых ссылок растет и мы уже не можем их оперативно восстанавливать поэтому просим помощи у каждого нашего пользователя.
    С сегодняшнего дня, за каждую восстановленную ссылку мы заплатим Вам.
    Подробнее тут -> ссылка
  • Перенесем твои заслуги с другого ресурса!
    Мы понимаем как сложно прокачивать аккаунты на форумах, вроде раскачал аккаунт, а тут появляется ресурс в 100 раз круче но тоже с системой прокачки и снова качать аккаунт...
    Предлагаем вам перенести Ваши заслуги на другом подобном ресурсе к нам.
    Подробности описаны тут -> ссылка
  • Вы можете получать по 2.5% с каждой покупки и продажи на маркете! Подробности в теме Партнёрская программа
Если Вы не хотите скачивать, Вы всегда можетепосмотретьонлайн, просто нажмите кнопку ниже :

Открыть плеер

Torrent_Bot

Торрент-Бот
Бот форума
4 Окт 2016
79
194
20





Вооружен и очень опасен
Жанр: Приключения, вестерн
Год выпуска: 1977
Страна: СССР
Продолжительность: 01:34:28
Режиссёр: Владимир Вайншток
В ролях: Донатас Банионис, Мирча Верою, Людмила Сенчина, Леонид Броневой, Лев Дуров, Альгимантас Масюлис, Сергей Мартинсон, Мария Плоае, Олег Жаков, Всеволод Абдулов, Талгат Нигматулин, Григорий Лямпе

Описание: Америка, Дикий Запад последней трети XIX века. Тысячи людей устремились сюда в погоне за богатством. Среди них был и Габриэль Конрой – абсолютно беспомощный в мире наживы человек. Когда на его землях забили нефтяные фонтаны, местный богач Питер Дамфи решил присоединить эти земли к своим и начал шантажировать жену Конроя, свою бывшую любовницу Жюли...
Доп. информация: По мотивам произведений Фрэнсиса Брет Гарта. Лидер проката 1978 г. – 39, 2 млн. зрителей. Песни на стихи Владимира Высоцкого. Популярная эстрадная певица 1970 годов Людмила Сенчина, блистательный Леонид Броневой и загадочный Донатас Банионис в остородраматичеком фильме признанного мастера приключенческого жанра Владимира Вайнштока. Премьера - 9 января 1978 года.



Релиз от:

Качество: DVDRip-AVC
Видео: MPEG-4 AVC, [email protected], 25 fps, 2275 Кбит/с
Аудио: AC3, 6 ch, 448 Кбит/с, AC3, 2 ch, 192 Кбит/с
Язык: Русский
Субтитры: Русские



Инфо файл
x264 [info]: frame I:852 Avg QP:18.23 size: 64331
x264 [info]: frame P:31329 Avg QP:19.92 size: 29485
x264 [info]: frame B:109520 Avg QP:21.59 size: 8845
x264 [info]: consecutive B-frames: 1.6% 2.4% 7.5% 25.3% 22.5% 33.7% 4.9% 1.2% 0.5% 0.3%
Общее
Уникальный идентификатор : 194988002357601492325276534594686720312 (0x92B152C0C0BC01C09E6E0C760ADC9938)
Полное имя : D:Вооружён и очень опасен_1977-DVDRip-AVC_KORSAR.mkv
Формат : Matroska
Версия формата : Version 2
Размер файла : 2,24 Гбайт
Продолжительность : 1 ч. 34 м.
Общий поток : 3390 Кбит/сек
Название фильма : Вооружён и очень опасен_1977-DVDRip-AVC_KORSAR
Дата кодирования : UTC 2019-04-02 15:32:03
Программа кодирования : mkvmerge v5.8.0 ('No Sleep / Pillow') built on Sep 2 2012 15:37:04
Библиотека кодирования : libebml v1.2.3 + libmatroska v1.3.0

Видео
Идентификатор : 1
Формат : AVC
Формат/Информация : Advanced Video Codec
Профиль формата : [email protected]
Параметр CABAC формата : Да
Параметр ReFrames формата : 16 кадров
Идентификатор кодека : V_MPEG4/ISO/AVC
Продолжительность : 1 ч. 34 м.
Битрейт : 2683 Кбит/сек
Ширина : 700 пикселей
Высота : 456 пикселей
Соотношение сторон : 2,2:1
Соотношение сторон в оригинале : 2,2:1
Режим частоты кадров : Постоянный
Частота кадров : 25,000 кадров/сек
Цветовое пространство : YUV
Субдискретизация насыщенности : 4:2:0
Битовая глубина : 8 бит
Тип развёртки : Прогрессивная
Бит/(Пиксели*Кадры) : 0.336
Размер потока : 1,77 Гбайт (79%)
Библиотека кодирования : x264 core 152 r2851kMod ba24899
Настройки программы : cabac=1 / ref=16 / deblock=1:-2:-1 / analyse=0x3:0x133 / me=umh / subme=10 / psy=1 / fade_compensate=0.00 / psy_rd=1.05:0.10 / mixed_ref=1 / me_range=40 / chroma_me=1 / trellis=2 / 8x8dct=1 / cqm=0 / deadzone=21,11 / fast_pskip=1 / chroma_qp_offset=-3 / threads=12 / lookahead_threads=2 / sliced_threads=0 / nr=0 / decimate=1 / interlaced=0 / bluray_compat=0 / constrained_intra=0 / bframes=9 / b_pyramid=2 / b_adapt=2 / b_bias=0 / direct=1 / weightb=1 / open_gop=0 / weightp=2 / keyint=250 / keyint_min=25 / scenecut=40 / intra_refresh=0 / rc=crf / mbtree=0 / crf=17.5000 / qcomp=0.63 / qpmin=0 / qpmax=30 / qpstep=4 / ip_ratio=1.40 / pb_ratio=1.30 / aq=1:1.00
Язык : English
Default : Да
Forced : Нет
Основные цвета : BT.601 PAL
Характеристики трансфера : BT.470 System B, BT.470 System G
Коэффициенты матрицы : BT.601

Аудио #1
Идентификатор : 2
Формат : AC-3
Формат/Информация : Audio Coding 3
Расширение режима : CM (complete main)
Параметр Endianness формата : Big
Идентификатор кодека : A_AC3
Продолжительность : 1 ч. 34 м.
Вид битрейта : Постоянный
Битрейт : 448 Кбит/сек
Каналы : 6 каналов
Расположение каналов : Front: L C R, Side: L R, LFE
Частота : 48,0 КГц
Битовая глубина : 16 бит
Метод сжатия : С потерями
Задержка видео : 120 мс.
Размер потока : 303 Мбайт (13%)
Язык : Russian
Default : Да
Forced : Нет

Аудио #2
Идентификатор : 3
Формат : AC-3
Формат/Информация : Audio Coding 3
Расширение режима : CM (complete main)
Параметр Endianness формата : Big
Идентификатор кодека : A_AC3
Продолжительность : 1 ч. 34 м.
Вид битрейта : Постоянный
Битрейт : 192 Кбит/сек
Каналы : 2 канала
Расположение каналов : Front: L R
Частота : 48,0 КГц
Битовая глубина : 16 бит
Метод сжатия : С потерями
Задержка видео : 120 мс.
Размер потока : 130 Мбайт (6%)
Язык : Russian
Default : Нет
Forced : Нет

Текст
Идентификатор : 4
Формат : UTF-8
Идентификатор кодека : S_TEXT/UTF8
Идентификатор кодека/Информация : UTF-8 Plain Text
Язык : Russian
Default : Нет
Forced : Нет

Меню
00:00:00.000 : en:Chapter 1
00:07:00.760 : en:Chapter 2
00:12:15.240 : en:Chapter 3
00:18:03.240 : en:Chapter 4
00:24:16.640 : en:Chapter 5
00:30:16.080 : en:Chapter 6
00:37:14.240 : en:Chapter 7
00:42:06.400 : en:Chapter 8
00:48:00.120 : en:Chapter 9
00:54:01.400 : en:Chapter 10
01:00:08.960 : en:Chapter 11
01:05:58.280 : en:Chapter 12
01:11:59.800 : en:Chapter 13
01:17:51.440 : en:Chapter 14
01:23:31.360 : en:Chapter 15
01:30:00.360 : en:Chapter 16
 

Вложения

  • 12,1 KB Просмотры: 1
    Личеров 0
    Сидеров 0
    Файлов 1
    Объем 2,2 GB

Привет!

Мы группа людей которые решили помочь другим в решении их проблем, а так же пользователям с поиском самых свежих и качественных инфопродуктов. За 4 с небольшим месяца мы создали этот форум на который заходят ежедневно тысячи человек и посещаемость постоянно растёт. Мы создали панель лицензирования для защиты PHP скриптов от воровства и SEO панель для мониторинга наших сайтов и выбора верной стратегии их развития. Мы надеемся что то что мы создали пригодится Вам и возможно Вы поможете нам развиваться и совершенствоваться вместе с Вами.

Статистика форума

Темы
414.370
Сообщения
475.396
Пользователи
96.561
Новый пользователь
starushka

Приложения форума для iOS и Android


У ркн там нет власти ;)
Приватные разговоры
Помощь Пользователи
    Вы не присоединились ни к одной комнате.