За последнюю неделю опубликовано 59 новых материалов.
Инструкция новичку Путеводитель по форуму Прокси для Telegram Показать подсказки , это бомба!

Скачать Волшебник страны Оз / The Wizard of Oz (1939) BDRip-HEVC 1080p от HEVC-CLUB | D, P бесплатно через торрент

  • Поучаствуй (в качестве покупателя) в любых пяти совместных покупках (кроме завершённых и "Моментальных") и получи группу "Новичок" навсегда -> ссылка на раздел
  • Получай до 480 рублей за каждого приглашенного пользователя!
    представляем Вам очередное расширение партнерской программы, подробности описаны тут -> ссылка
  • 90% материалов доступно к скачиванию после простой регистрации!
    Если же ты хочешь скачивать материалы без требования оставлять отзывы то получи группу "Новичок", 10 способов повышения описаны тут -> ссылка
  • К сожалению количество битых ссылок растет и мы уже не можем их оперативно восстанавливать поэтому просим помощи у каждого нашего пользователя.
    С сегодняшнего дня, за каждую восстановленную ссылку мы заплатим Вам.
    Подробнее тут -> ссылка
  • Перенесем твои заслуги с другого ресурса!
    Мы понимаем как сложно прокачивать аккаунты на форумах, вроде раскачал аккаунт, а тут появляется ресурс в 100 раз круче но тоже с системой прокачки и снова качать аккаунт...
    Предлагаем вам перенести Ваши заслуги на другом подобном ресурсе к нам.
    Подробности описаны тут -> ссылка
  • Вы можете получать по 2.5% с каждой покупки и продажи на маркете! Подробности в теме Партнёрская программа
Если Вы не хотите скачивать, Вы всегда можетепосмотретьонлайн, просто нажмите кнопку ниже :

Открыть плеер

Torrent_Bot

Торрент-Бот
Бот форума
4 Окт 2016
92
163
20



Год выхода: 1939
Страна / Студия: США / Metro-Goldwyn-Mayer (MGM)
Жанр:мюзикл, фэнтези, приключения, семейный
Продолжительность: 01:41:47
Перевод: Дублированный, профессиональный (многоголосый, закадровый)

Режиссер: Виктор Флеминг, Джордж Кьюкор, Мервин ЛеРой, Норман Торог, Кинг Видор
В ролях: Джуди Гарлэнд, Фрэнк Морган, Рэй Болджер, Берт Лар, Джек Хейли, Билли Бурк, Маргарет Хэмилтон, Чарли Грейпвин, Пэт Уолш, Клара Блэндик

Описание: Усаживайтесь поудобнее и приготовьтесь отправиться в долгое путешествие. Поднявшись выше радуги, вы окажетесь на дороге из желтого кирпича. Дорога проведет вас через заколдованные леса, царства злых ведьм и добрых фей в Изумрудный Город в далекой стране Оз. В мир, где любая мечта становится реальностью.

Качество: BDRip 1080p
Видео: HEVC/H.265, 1480x1080, ~9872 Kbps
Аудио 1: AC3, 6 ch, 640 Kbps - Русский, дублированный (Blu-Ray CEE)
Аудио 2: AC3, 6 ch, 448 Kbps - Русский, MVO (DVD-Магия)
Аудио 3: AC3, 6 ch, 448 Kbps - Украинский, MVO (Омікрон)
Аудио 4: AC3, 6 ch, 640 Kbps - Английский
Субтитры: Русские (форсированные, полные х2), английские (полные, SDH)



Релиз от: Мичман

Mediainfo
==============================
x265 [info]: frame I: Avg QP:18.48 kb/s: 27953.20
x265 [info]: frame P: Avg QP:20.28 kb/s: 19522.90
x265 [info]: frame B: Avg QP:22.35 kb/s: 6781.10
==============================
Общее
Уникальный идентификатор : 173282438233602402150677769245049188849 (0x825CFBD157816AFAB6004D5E80AF71F1)
Полное имя : R:The Wizard of Oz (1939) BDRip-HEVC 1080p.mkv
Формат : Matroska
Версия формата : Version 4 / Version 2
Размер файла : 8,57 Гбайт
Продолжительность : 1 ч. 41 м.
Общий поток : 12,0 Мбит/сек
Название фильма : The Wizard of Oz (1939)
Дата кодирования : UTC 2020-08-28 14:47:53
Программа кодирования : mkvmerge v49.0.0 ('Sick Of Losing Soulmates') 64-bit
Библиотека кодирования : libebml v1.4.0 + libmatroska v1.6.1
Обложка : Yes
Attachments : cover

Видео
Идентификатор : 1
Формат : HEVC
Формат/Информация : High Efficiency Video Coding
Профиль формата : Main [email protected]@High
Идентификатор кодека : V_MPEGH/ISO/HEVC
Продолжительность : 1 ч. 41 м.
Битрейт : 9872 Кбит/сек
Ширина : 1480 пикселей
Высота : 1080 пикселей
Соотношение сторон : 1,370
Режим частоты кадров : Постоянный
Частота кадров : 23,976 (23976/1000) кадра/сек
Частота кадров в оригинале : 23,976 (24000/1001) кадра/сек
Цветовое пространство : YUV
Субдискретизация насыщенности : 4:2:0
Битовая глубина : 10 бит
Бит/(Пиксели*Кадры) : 0.258
Размер потока : 7,02 Гбайт (82%)
Библиотека кодирования : x265 3.3+1-g554c887ac:[Windows][MSVC 1924][64 bit] 10bit
Настройки программы : cpuid=1111039 / frame-threads=3 / numa-pools=12 / wpp / no-pmode / no-pme / no-psnr / no-ssim / log-level=2 / input-csp=1 / input-res=1480x1080 / interlace=0 / total-frames=146426 / level-idc=41 / high-tier=1 / uhd-bd=0 / ref=5 / no-allow-non-conformance / no-repeat-headers / annexb / no-aud / no-hrd / info / hash=0 / no-temporal-layers / open-gop / min-keyint=23 / keyint=240 / gop-lookahead=0 / bframes=16 / b-adapt=2 / b-pyramid / bframe-bias=0 / rc-lookahead=60 / lookahead-slices=4 / scenecut=40 / hist-scenecut=0 / radl=0 / no-splice / no-intra-refresh / ctu=32 / min-cu-size=8 / rect / amp / max-tu-size=32 / tu-inter-depth=4 / tu-intra-depth=4 / limit-tu=1 / rdoq-level=2 / dynamic-rd=0.00 / no-ssim-rd / signhide / no-tskip / nr-intra=0 / nr-inter=0 / no-constrained-intra / no-strong-intra-smoothing / max-merge=4 / limit-refs=2 / limit-modes / me=3 / subme=7 / merange=57 / temporal-mvp / no-frame-dup / no-hme / weightp / weightb / no-analyze-src-pics / deblock=-3:-3 / no-sao / no-sao-non-deblock / rd=6 / selective-sao=0 / no-early-skip / rskip / no-fast-intra / no-tskip-fast / no-cu-lossless / no-b-intra / no-splitrd-skip / rdpenalty=0 / psy-rd=2.00 / psy-rdoq=1.00 / no-rd-refine / no-lossless / cbqpoffs=0 / crqpoffs=0 / rc=crf / crf=19.0 / qcomp=0.60 / qpstep=4 / stats-write=0 / stats-read=0 / vbv-maxrate=50000 / vbv-bufsize=50000 / vbv-init=0.9 / crf-max=0.0 / crf-min=0.0 / ipratio=1.40 / pbratio=1.30 / aq-mode=1 / aq-strength=1.00 / no-cutree / zone-count=0 / no-strict-cbr / qg-size=32 / no-rc-grain / qpmax=69 / qpmin=0 / no-const-vbv / sar=1 / overscan=0 / videoformat=5 / range=0 / colorprim=1 / transfer=1 / colormatrix=1 / chromaloc=0 / display-window=0 / cll=0,0 / min-luma=0 / max-luma=1023 / log2-max-poc-lsb=8 / vui-timing-info / vui-hrd-info / slices=1 / no-opt-qp-pps / no-opt-ref-list-length-pps / no-multi-pass-opt-rps / scenecut-bias=0.05 / hist-threshold=0.01 / no-opt-cu-delta-qp / no-aq-motion / no-hdr10 / no-hdr10-opt / no-dhdr10-opt / no-idr-recovery-sei / analysis-reuse-level=0 / analysis-save-reuse-level=0 / analysis-load-reuse-level=0 / scale-factor=0 / refine-intra=0 / refine-inter=0 / refine-mv=1 / refine-ctu-distortion=0 / no-limit-sao / ctu-info=0 / no-lowpass-dct / refine-analysis-type=0 / copy-pic=1 / max-ausize-factor=1.0 / no-dynamic-refine / no-single-sei / no-hevc-aq / no-svt / no-field / qp-adaptation-range=1.00 / no-scenecut-aware-qpconformance-window-offsets / right=0 / bottom=0
Default : Да
Forced : Нет
Цветовой диапазон : Limited
Основные цвета : BT.709
Характеристики трансфера : BT.709
Коэффициенты матрицы : BT.709

Аудио #1
Идентификатор : 2
Формат : AC-3
Формат/Информация : Audio Coding 3
Идентификатор кодека : A_AC3
Продолжительность : 1 ч. 41 м.
Вид битрейта : Постоянный
Битрейт : 640 Кбит/сек
Каналы : 6 каналов
Расположение каналов : Front: L C R, Side: L R, LFE
Частота : 48,0 КГц
Частота кадров : 31,250 кадров/сек (1536 SPF)
Битовая глубина : 16 бит
Метод сжатия : С потерями
Размер потока : 466 Мбайт (5%)
Заголовок : Дублированный (Blu-Ray CEE)
Язык : Russian
ServiceKind/Strin : Complete Main
Default : Да
Forced : Нет

Аудио #2
Идентификатор : 3
Формат : AC-3
Формат/Информация : Audio Coding 3
Идентификатор кодека : A_AC3
Продолжительность : 1 ч. 41 м.
Вид битрейта : Постоянный
Битрейт : 448 Кбит/сек
Каналы : 6 каналов
Расположение каналов : Front: L C R, Side: L R, LFE
Частота : 48,0 КГц
Частота кадров : 31,250 кадров/сек (1536 SPF)
Битовая глубина : 16 бит
Метод сжатия : С потерями
Размер потока : 326 Мбайт (4%)
Заголовок : Многоголосый закадровый (DVD-Магия)
Язык : Russian
ServiceKind/Strin : Complete Main
Default : Нет
Forced : Нет

Аудио #3
Идентификатор : 4
Формат : AC-3
Формат/Информация : Audio Coding 3
Идентификатор кодека : A_AC3
Продолжительность : 1 ч. 41 м.
Вид битрейта : Постоянный
Битрейт : 448 Кбит/сек
Каналы : 6 каналов
Расположение каналов : Front: L C R, Side: L R, LFE
Частота : 48,0 КГц
Частота кадров : 31,250 кадров/сек (1536 SPF)
Битовая глубина : 16 бит
Метод сжатия : С потерями
Размер потока : 326 Мбайт (4%)
Заголовок : Многоголосый закадровый (Омікрон)
Язык : Ukrainian
ServiceKind/Strin : Complete Main
Default : Нет
Forced : Нет

Аудио #4
Идентификатор : 5
Формат : AC-3
Формат/Информация : Audio Coding 3
Идентификатор кодека : A_AC3
Продолжительность : 1 ч. 41 м.
Вид битрейта : Постоянный
Битрейт : 640 Кбит/сек
Каналы : 6 каналов
Расположение каналов : Front: L C R, Side: L R, LFE
Частота : 48,0 КГц
Частота кадров : 31,250 кадров/сек (1536 SPF)
Битовая глубина : 16 бит
Метод сжатия : С потерями
Размер потока : 466 Мбайт (5%)
Заголовок : Original
Язык : English
ServiceKind/Strin : Complete Main
Default : Нет
Forced : Нет

Текст #1
Идентификатор : 6
Формат : UTF-8
Идентификатор кодека : S_TEXT/UTF8
Идентификатор кодека/Информация : UTF-8 Plain Text
Продолжительность : 1 ч. 12 м.
Битрейт : 28 бит/сек
ElementCount : 254
Размер потока : 15,3 Кбайт (0%)
Заголовок : Надписи + песни
Язык : Russian
Default : Да
Forced : Нет

Текст #2
Идентификатор : 7
Формат : UTF-8
Идентификатор кодека : S_TEXT/UTF8
Идентификатор кодека/Информация : UTF-8 Plain Text
Продолжительность : 1 ч. 40 м.
Битрейт : 79 бит/сек
ElementCount : 1151
Размер потока : 59,1 Кбайт (0%)
Заголовок : Full
Язык : Russian
Default : Нет
Forced : Нет

Текст #3
Идентификатор : 8
Формат : UTF-8
Идентификатор кодека : S_TEXT/UTF8
Идентификатор кодека/Информация : UTF-8 Plain Text
Продолжительность : 1 ч. 40 м.
Битрейт : 100 бит/сек
ElementCount : 1401
Размер потока : 74,1 Кбайт (0%)
Заголовок : Full + песни
Язык : Russian
Default : Нет
Forced : Нет

Текст #4
Идентификатор : 9
Формат : UTF-8
Идентификатор кодека : S_TEXT/UTF8
Идентификатор кодека/Информация : UTF-8 Plain Text
Продолжительность : 1 ч. 39 м.
Битрейт : 56 бит/сек
ElementCount : 1220
Размер потока : 41,4 Кбайт (0%)
Заголовок : English (Full)
Язык : English
Default : Нет
Forced : Нет

Текст #5
Идентификатор : 10
Формат : UTF-8
Идентификатор кодека : S_TEXT/UTF8
Идентификатор кодека/Информация : UTF-8 Plain Text
Продолжительность : 1 ч. 39 м.
Битрейт : 71 бит/сек
ElementCount : 1487
Размер потока : 52,4 Кбайт (0%)
Заголовок : English (SDH)
Язык : English
Default : Нет
Forced : Нет

Меню
00:00:00.000 : en:Main Title
00:01:36.095 : en:prologue
00:01:56.115 : en:Dorothy's Dilemma
00:05:49.349 : en:Over the Rainbow
00:08:02.440 : en:Miss Gulch
00:10:21.120 : en:Toto Escapes
00:11:02.828 : en:Dorothy Runs Away
00:12:47.766 : en:Crystal Gazing
00:15:06.405 : en:"It's A Twister!"
00:17:01.562 : en:Inside the Cyclone
00:19:26.832 : en:Not in Kansas Anymore
00:22:59.127 : en:Come Out, Come Out
00:23:43.713 : en:It Really Was No Miracle
00:24:52.991 : en:Ding! Dong! the Witch Is Dead!
00:27:35.612 : en:The Lullaby League
00:28:03.681 : en:The Lollipop Guild
00:29:06.745 : en:"Who Killed My Sister?"
00:31:05.905 : en:"What a Smell of Sulfur!"
00:32:43.962 : en:Follow the Yellow Brick Road
00:33:16.995 : en:You're Off to See the Wizard
00:34:04.125 : en:Dorothy Meets the Scarecrow
00:36:35.193 : en:If I Only Had a Brain
00:38:48.826 : en:We're Off to See the Wizard
00:39:16.854 : en:"Apples!"
00:40:29.718 : en:"a Man Made Out of Tin!"
00:42:49.567 : en:If I Only Had a Heart
00:45:55.752 : en:"Wanna Play Ball?"
00:47:00.692 : en:"to Oz? to Oz!"
00:47:56.873 : en:"Lions and Tigers and Bears. Oh My!"
00:49:05.192 : en:Meeting the Cowardly Lion
00:52:09.626 : en:If I Only Had the Nerve
00:52:51.418 : en:We're Off to See the Wizard
00:53:54.230 : en:"Poppies Will Put Them to Sleep!"
00:57:20.437 : en:Optimistic Voices
00:58:23.875 : en:The Emerald City
01:00:34.631 : en:The Merry Old Land of Oz
01:02:14.397 : en:Surrender, Dorothy
01:03:59.335 : en:If I Were the King of the Forest
01:08:46.080 : en:Meeting the Wizard of Oz
01:12:45.361 : en:The Haunted Forest
01:14:31.467 : en:Attack of the Winged Monkeys
01:16:11.566 : en:Dorothy in Captivity
01:17:25.724 : en:Toto's Escape
01:20:39.834 : en:March of the Winkies
01:23:20.245 : en:The Rescue
01:24:51.252 : en:"Seize Them!"
01:25:55.441 : en:"I'm Melting!"
01:26:59.631 : en:"the Wicked Witch Is Dead!"
01:28:23.881 : en:The Wizard Revealed
01:29:23.649 : en:Heroic Rewards
01:33:48.622 : en:The Wizard's Balloon
01:35:51.245 : en:Glinda Returns
01:37:33.430 : en:Dorothy's Farewell
01:38:40.122 : en:"There's No Place Like Home!"
01:41:23.577 : en:Cast List
 

Вложения

  • 22,5 KB Просмотры: 0
    Личеров 0
    Сидеров 0
    Файлов 1
    Объем 8,6 GB

Привет!

Мы группа людей которые решили помочь другим в решении их проблем, а так же пользователям с поиском самых свежих и качественных инфопродуктов. За 4 с небольшим месяца мы создали этот форум на который заходят ежедневно тысячи человек и посещаемость постоянно растёт. Мы создали панель лицензирования для защиты PHP скриптов от воровства и SEO панель для мониторинга наших сайтов и выбора верной стратегии их развития. Мы надеемся что то что мы создали пригодится Вам и возможно Вы поможете нам развиваться и совершенствоваться вместе с Вами.

Статистика форума

Темы
406.678
Сообщения
465.125
Пользователи
84.737
Новый пользователь
Mo0dak

Приложения форума для iOS и Android


У ркн там нет власти ;)
Приватные разговоры
Помощь Пользователи
    Вы не присоединились ни к одной комнате.