За последнюю неделю опубликовано 36 новых материалов.
Инструкция новичку Путеводитель по форуму Прокси для Telegram Показать подсказки , это бомба!

Скачать Волшебная сила (1970) DVDRip от New-Team бесплатно через торрент

  • Поучаствуй (в качестве покупателя) в любых пяти совместных покупках (кроме завершённых и "Моментальных") и получи группу "Новичок" навсегда -> ссылка на раздел
  • Получай до 480 рублей за каждого приглашенного пользователя!
    представляем Вам очередное расширение партнерской программы, подробности описаны тут -> ссылка
  • 90% материалов доступно к скачиванию после простой регистрации!
    Если же ты хочешь скачивать материалы без требования оставлять отзывы то получи группу "Новичок", 10 способов повышения описаны тут -> ссылка
  • К сожалению количество битых ссылок растет и мы уже не можем их оперативно восстанавливать поэтому просим помощи у каждого нашего пользователя.
    С сегодняшнего дня, за каждую восстановленную ссылку мы заплатим Вам.
    Подробнее тут -> ссылка
  • Перенесем твои заслуги с другого ресурса!
    Мы понимаем как сложно прокачивать аккаунты на форумах, вроде раскачал аккаунт, а тут появляется ресурс в 100 раз круче но тоже с системой прокачки и снова качать аккаунт...
    Предлагаем вам перенести Ваши заслуги на другом подобном ресурсе к нам.
    Подробности описаны тут -> ссылка
  • Вы можете получать по 2.5% с каждой покупки и продажи на маркете! Подробности в теме Партнёрская программа
Если Вы не хотите скачивать, Вы всегда можетепосмотретьонлайн, просто нажмите кнопку ниже :

Открыть плеер

Torrent_Bot

Торрент-Бот
Бот форума
4 Окт 2016
93
160
20
Страна: СССР
Производство: Гостелерадио, Ленфильм
Жанр: мюзикл, комедия, семейный
Год выпуска: 1970
Продолжительность: 01:04:54

Перевод: не требуется
Оригинальная аудиодорожка: русский
Cубтитры: нет

Режиссер: Наум Бирман

В ролях:
Аркадий Райкин, Людмила Сенчина, Николай Трофимов, Константин Ценкаев, Нина Ургант, Татьяна Доронина, Игорь Королев, Людмила Васютинская, Павел Панков, Анна Лисянская...

Описание:
Волшебная сила искусства - музыкальный фильм режиссёра Наума Бирмана, состоящий из трех новелл.
«Мстители из 2-го В»
В ролях: Людмила Сенчина — учительница; Трофимов, Николай Николаевич — директор школы; Костя Ценкаев — Денис Кораблёв; Мила Васютинская — Алёнка; Игорь Богданов — Мишка
Учеников второго класса ведут в кино на приключенческий фильм. Забыв, что они в кинотеатре, ребята решают помочь «нашим».
«Здравствуй, Пушкин!»
В ролях: Нина Ургант — мама Вовы, Таня Доронина — Света, Игорь Королёв — Вова, Ваня Цанов, Слава Горошенков, Дима Рапопорт
О мальчике, объясняющемся в любви девочке при помощи поэмы Пушкина «Евгений Онегин».
«Волшебная сила искусства»
В ролях: Аркадий Райкин — артист, Павел Панков — Мордатенков, Анна Лисянская — Мордатенкова, Ирина Гошева — Елена Сергеевна Сергеева
Но самая знаменитая новелла — заглавная. Бывший ученик помогает старушке учительнице перевоспитать хамов-соседей по коммуналке. Фразы "Ну что, старый таракан, в лоб захотел? Так я тебе брызну!", "Святое дело, мама с папой"... — стали крылатыми.





Исходник: DVD5 R5
Тип релиза: DVDRip
Контейнер: AVI

Видео: 720x544 (4:3), 25 fps, XviD ~ 1466 kbps avg, 0.150 bit/pixel
Аудио: 48 kHz, MP3 5.1, 128 kbps
MediaInfo
Общее
Полное имя : Volshebnaja.sila.1970.DVDRip-745_[Youtracker]_by_AVP Studio.avi
Формат : AVI
Формат/Информация : Audio Video Interleave
Размер файла : 745 Мбайт
Продолжительность : 1 ч. 4 м.
Общий поток : 1604 Кбит/сек
Программа кодирования : VirtualDubModRus 1.5.10.2 (build 2542/release)
Библиотека кодирования : VirtualDubMod build 2542/release

Видео
Идентификатор : 0
Формат : MPEG-4 Visual
Профиль формата : Advanced [email protected]
Параметр BVOP формата : 1
Параметр QPel формата : Нет
Параметр GMC формата : Без точки перехода
Параметр матрицы формата : Выборочная
Идентификатор кодека : XVID
Идентификатор кодека/Подсказка : XviD
Продолжительность : 1 ч. 4 м.
Битрейт : 1466 Кбит/сек
Ширина : 720 пикселей
Высота : 544 пикселя
Соотношение сторон : 4:3
Частота кадров : 25,000 кадров/сек
Цветовое пространство : YUV
Субдискретизация насыщенности : 4:2:0
Битовая глубина : 8 бит
Тип развёртки : Прогрессивная
Метод сжатия : С потерями
Бит/(Пиксели*Кадры) : 0.150
Размер потока : 681 Мбайт (91%)
Библиотека кодирования : XviD 65

Аудио
Идентификатор : 1
Формат : MPEG Audio
Версия формата : Version 1
Профиль формата : Layer 3
Идентификатор кодека : 55
Идентификатор кодека/Подсказка : MP3
Продолжительность : 1 ч. 4 м.
Вид битрейта : Постоянный
Битрейт : 128 Кбит/сек
Каналы : 2 канала
Частота : 48,0 КГц
Метод сжатия : С потерями
Размер потока : 59,4 Мбайт (8%)
Выравнивание : Соединение по промежуткам
Продолжительность промежутка : 40 мс. (1,00 видеокадр)
Время предзагрузки промежутка : 504 мс.
Библиотека кодирования : L3.99r
Настройки программы : -m s -V 4 -q 2 -lowpass 17 -b 128
Скриншоты
 

Вложения

  • 15,8 KB Просмотры: 0
    Личеров 0
    Сидеров 0
    Файлов 1
    Объем 744,7 MB

Привет!

Мы группа людей которые решили помочь другим в решении их проблем, а так же пользователям с поиском самых свежих и качественных инфопродуктов. За 4 с небольшим месяца мы создали этот форум на который заходят ежедневно тысячи человек и посещаемость постоянно растёт. Мы создали панель лицензирования для защиты PHP скриптов от воровства и SEO панель для мониторинга наших сайтов и выбора верной стратегии их развития. Мы надеемся что то что мы создали пригодится Вам и возможно Вы поможете нам развиваться и совершенствоваться вместе с Вами.

Статистика форума

Темы
406.603
Сообщения
465.005
Пользователи
84.301
Новый пользователь
danilklimenko42

Приложения форума для iOS и Android


У ркн там нет власти ;)
Приватные разговоры
Помощь Пользователи
    Вы не присоединились ни к одной комнате.