За последнюю неделю опубликовано 88 новых материалов.
Инструкция новичку Путеводитель по форуму Прокси для Telegram Показать подсказки , это бомба!

Скачать Волки (2009) HDTVRip-AVC бесплатно через торрент

  • Поучаствуй (в качестве покупателя) в любых пяти совместных покупках (кроме завершённых и "Моментальных") и получи группу "Новичок" навсегда -> ссылка на раздел
  • Получай до 480 рублей за каждого приглашенного пользователя!
    представляем Вам очередное расширение партнерской программы, подробности описаны тут -> ссылка
  • 90% материалов доступно к скачиванию после простой регистрации!
    Если же ты хочешь скачивать материалы без требования оставлять отзывы то получи группу "Новичок", 10 способов повышения описаны тут -> ссылка
  • К сожалению количество битых ссылок растет и мы уже не можем их оперативно восстанавливать поэтому просим помощи у каждого нашего пользователя.
    С сегодняшнего дня, за каждую восстановленную ссылку мы заплатим Вам.
    Подробнее тут -> ссылка
  • Перенесем твои заслуги с другого ресурса!
    Мы понимаем как сложно прокачивать аккаунты на форумах, вроде раскачал аккаунт, а тут появляется ресурс в 100 раз круче но тоже с системой прокачки и снова качать аккаунт...
    Предлагаем вам перенести Ваши заслуги на другом подобном ресурсе к нам.
    Подробности описаны тут -> ссылка
  • Вы можете получать по 2.5% с каждой покупки и продажи на маркете! Подробности в теме Партнёрская программа
Если Вы не хотите скачивать, Вы всегда можетепосмотретьонлайн, просто нажмите кнопку ниже :

Открыть плеер

Torrent_Bot

Торрент-Бот
Бот форума
4 Окт 2016
102
153
20

Информация о фильме
Название: Волки
Год выхода: 2009
Жанр: Драма
Режиссер: Александр Колбышев
В ролях: Дмитрий Ульянов, Андрей Панин, Коля Спиридонов, Владимир Гостюхин, Тамара Миронова, Сергей Власов, Оксана Лесная, Галина Кухальская, Светлана Никифорова, Зинаида Зубкова


О фильме:
Побег арестанта Кирилла Полетаева ставит в сложную ситуацию дорогих ему людей. Каждый из них, ни на секунду не задумываясь, делает все возможное и невозможное, чтобы помочь ему, зная, что заплатит за это самую дорогую цену — свою жизнь.





Страна: Белоруссия
Студия: Беларусьфильм
Продолжительность: 01:45:38
Перевод: Не требуется


Файл
Кодек: h.264
Качество: HDTVRip-AVC
Видео: High@L4.1, ~1513 Кбит/с, 1024x576, 25.000 кадр/с
Звук: AC3, 6 ch, 448 Кбит/с
Субтитры: Нет


M/I
General
Unique ID : 49451532994494904107956491307622090582 (0x253404D152588DC0B41CC21C675C4756)
Complete name : D:КИНОВолки.(2009).HDTVRIP_AVC.[-=DoMiNo=-].mkv
Format : Matroska
Format version : Version 4 / Version 2
File size : 1.45 GiB
Duration : 1 h 45 min
Overall bit rate : 1 963 kb/s
Movie name : Волки
Deion : Побег арестанта Кирилла Полетаева ставит в сложную ситуацию дорогих ему людей. Каждый из них, ни на секунду не задумываясь, делает все возможное и невозможное, чтобы помочь ему, зная, что заплатит за это самую дорогую цену — свою жизнь.
Writing application : XviD4PSP 7.0.324 DAILY
Writing library : Lavf57.41.100 / Lavf57.41.100
Cover : Yes
Attachments : cover.jpg
ACTORS : Дмитрий Ульянов, Андрей Панин, Коля Спиридонов, Владимир Гостюхин, Тамара Миронова, Сергей Власов, Оксана Лесная, Галина Кухальская, Светлана Никифорова, Зинаида Зубкова
COUNTRY : Белоруссия
DATE : 2009
DIRECTOR : Александр Колбышев
ENCODING_INFO : MPEGTS > MKV / H264 > X264 VBR-2P 1513kbps Произвольный / AC3 > COPY
GENRE : 2009
PUBLISHER : Беларусьфильм
RATING : 7.02

Video
ID : 1
Format : AVC
Format/Info : Advanced Video Codec
Format profile : High@L4.1
Format settings, CABAC : Yes
Format settings, ReFrames : 10 frames
Codec ID : V_MPEG4/ISO/AVC
Duration : 1 h 45 min
Bit rate : 1 513 kb/s
Width : 1 024 pixels
Height : 576 pixels
Display aspect ratio : 16:9
Frame rate mode : Constant
Frame rate : 25.000 FPS
Color space : YUV
Chroma subsampling : 4:2:0
Bit depth : 8 bits
Scan type : Progressive
Bits/(Pixel*Frame) : 0.103
Stream size : 1.09 GiB (75%)
Title : RIP_[-=DoMiNo=-]
Writing library : x264 core 148 r2721M 72d53ab
Encoding settings : cabac=1 / ref=10 / deblock=1:-3:-3 / analyse=0x3:0x133 / me=umh / subme=10 / psy=1 / psy_rd=1.00:0.10 / mixed_ref=1 / me_range=32 / chroma_me=1 / trellis=2 / 8x8dct=1 / cqm=0 / deadzone=21,11 / fast_pskip=0 / chroma_qp_offset=-3 / threads=5 / lookahead_threads=1 / sliced_threads=0 / nr=0 / decimate=1 / interlaced=0 / bluray_compat=0 / constrained_intra=0 / bframes=9 / b_pyramid=2 / b_adapt=2 / b_bias=0 / direct=3 / weightb=1 / open_gop=0 / weightp=2 / keyint=250 / keyint_min=25 / scenecut=40 / intra_refresh=0 / rc=2pass / mbtree=0 / bitrate=1513 / ratetol=1.0 / qcomp=0.70 / qpmin=0 / qpmax=69 / qpstep=4 / cplxblur=20.0 / qblur=0.5 / ip_ratio=1.40 / pb_ratio=1.30 / aq=1:1.00
Default : Yes
Forced : No
Color range : Limited
Color primaries : BT.709
Transfer characteristics : BT.709
Matrix coefficients : BT.709
DURATION : 01:45:38.320000000

Audio
ID : 2
Format : AC-3
Format/Info : Audio Coding 3
Mode extension : CM (complete main)
Format settings, Endianness : Big
Codec ID : A_AC3
Duration : 1 h 45 min
Bit rate mode : Constant
Bit rate : 448 kb/s
Channel(s) : 6 channels
Channel positions : Front: L C R, Side: L R, LFE
Sampling rate : 48.0 kHz
Frame rate : 31.250 FPS (1536 spf)
Bit depth : 16 bits
Compression mode : Lossy
Stream size : 339 MiB (23%)
Title : RUS_448kb/s_6ch
Language : Russian
Default : Yes
Forced : No
DURATION : 01:45:38.432000000

Menu
00:00:00.000 : :Глава 1
00:07:44.799 : :Глава 2
00:15:27.960 : :Глава 3
00:23:44.759 : :Глава 4
00:32:25.880 : :Глава 5
00:41:14.760 : :Глава 6
00:50:10.800 : :Глава 7
01:00:46.200 : :Глава 8
01:10:56.760 : :Глава 9
01:21:06.720 : :Глава 10
01:30:52.760 : :Глава 11
01:37:55.040 : :Глава 12
Скриншоты
 

Вложения

  • 15,4 KB Просмотры: 0
    Личеров 0
    Сидеров 0
    Файлов 1
    Объем 1,4 GB

Привет!

Мы группа людей которые решили помочь другим в решении их проблем, а так же пользователям с поиском самых свежих и качественных инфопродуктов. За 4 с небольшим месяца мы создали этот форум на который заходят ежедневно тысячи человек и посещаемость постоянно растёт. Мы создали панель лицензирования для защиты PHP скриптов от воровства и SEO панель для мониторинга наших сайтов и выбора верной стратегии их развития. Мы надеемся что то что мы создали пригодится Вам и возможно Вы поможете нам развиваться и совершенствоваться вместе с Вами.

Статистика форума

Темы
404.617
Сообщения
461.558
Пользователи
80.412
Новый пользователь
polkasha

Приложения форума для iOS и Android


У ркн там нет власти ;)
Приватные разговоры
Помощь Пользователи
    Вы не присоединились ни к одной комнате.