За последнюю неделю опубликовано 53 новых материалов.
Инструкция новичку Путеводитель по форуму Прокси для Telegram Показать подсказки , это бомба!

Скачать Волга-Волга (1938) DVD5 | Цветная версия бесплатно через торрент

  • Поучаствуй (в качестве покупателя) в любых пяти совместных покупках (кроме завершённых и "Моментальных") и получи группу "Новичок" навсегда -> ссылка на раздел
  • Получай до 480 рублей за каждого приглашенного пользователя!
    представляем Вам очередное расширение партнерской программы, подробности описаны тут -> ссылка
  • 90% материалов доступно к скачиванию после простой регистрации!
    Если же ты хочешь скачивать материалы без требования оставлять отзывы то получи группу "Новичок", 10 способов повышения описаны тут -> ссылка
  • К сожалению количество битых ссылок растет и мы уже не можем их оперативно восстанавливать поэтому просим помощи у каждого нашего пользователя.
    С сегодняшнего дня, за каждую восстановленную ссылку мы заплатим Вам.
    Подробнее тут -> ссылка
  • Перенесем твои заслуги с другого ресурса!
    Мы понимаем как сложно прокачивать аккаунты на форумах, вроде раскачал аккаунт, а тут появляется ресурс в 100 раз круче но тоже с системой прокачки и снова качать аккаунт...
    Предлагаем вам перенести Ваши заслуги на другом подобном ресурсе к нам.
    Подробности описаны тут -> ссылка
  • Вы можете получать по 2.5% с каждой покупки и продажи на маркете! Подробности в теме Партнёрская программа
Если Вы не хотите скачивать, Вы всегда можетепосмотретьонлайн, просто нажмите кнопку ниже :

Открыть плеер

Torrent_Bot

Торрент-Бот
Бот форума
4 Окт 2016
102
157
20
Информация о фильме
Название: Волга-Волга
Год выхода: 1938
Жанр: Комедия
Режиссер: Григорий Александров
В ролях: Игорь Ильинский, Любовь Орлова, Павел Оленев, Андрей Тутышкин, Сергей Антимонов, Владимир Володин, Мария Миронова, Всеволод Санаев, Эммануил Геллер, Никита Кондратьев...

О фильме:
Начальник управления мелкой кустарной промышленности Бывалов мечтает о службе в Москве. Он получает распоряжение подготовить к всесоюзному смотру участников художественной самодеятельности. Бывалов считает, что посылать в Москву некого, несмотря на то, что в городе есть два творческих коллектива. В конце концов каждая группа отправляется по Волге в столицу своим путем.


Страна: СССР
Студия: Мосфильм
Продолжительность: 01:48:00
Перевод: Не требуется

Файл
Кодек: MPEG2
Качество: DVD5
Видео: PAL 4:3 (720x576) 4833 Kbps, 25.000 fps
Звук: Dolby AC3, 5.1, 6ch, 448 kbps
Субтитры: Отсутствует

MI
General
Complete name : D:ТоррентыВолга-ВолгаВолга-волга DVD5(Сжатый) by vovaniez от RG TRUVIDEO_TSVTS_03_5.VOB
Format : MPEG-PS
File size : 336 MiB
Duration : 8mn 43s
Overall bit rate mode : Variable
Overall bit rate : 5 388 Kbps

Video
ID : 224 (0xE0)
Format : MPEG Video
Format version : Version 2
Format profile : Main@Main
Format settings, BVOP : Yes
Format settings, Matrix : Custom
Format settings, GOP : Variable
Format settings, picture structure : Frame
Duration : 8mn 42s
Bit rate mode : Variable
Bit rate : 4 833 Kbps
Maximum bit rate : 8 321 Kbps
Width : 720 pixels
Height : 576 pixels
Display aspect ratio : 4:3
Frame rate : 25.000 fps
Standard : PAL
Color space : YUV
Chroma subsampling : 4:2:0
Bit depth : 8 bits
Scan type : Interlaced
Scan order : Top Field First
Compression mode : Lossy
Bits/(Pixel*Frame) : 0.466
Time code of first frame : 01:30:18:06
Time code source : Group of pictures header
GOP, Open/Closed : Open
Stream size : 301 MiB (90%)

Audio
ID : 189 (0xBD)-129 (0x81)
Format : AC-3
Format/Info : Audio Coding 3
Mode extension : CM (complete main)
Format settings, Endianness : Big
Muxing mode : DVD-Video
Duration : 8mn 43s
Bit rate mode : Constant
Bit rate : 448 Kbps
Channel(s) : 6 channels
Channel positions : Front: L C R, Side: L R, LFE
Sampling rate : 48.0 KHz
Compression mode : Lossy
Delay relative to video : -752ms
Stream size : 27.9 MiB (8%)

Menu
Скриншоты
 

Вложения

  • 23,6 KB Просмотры: 0
    Личеров 0
    Сидеров 0
    Файлов 18
    Объем 4,4 GB

Привет!

Мы группа людей которые решили помочь другим в решении их проблем, а так же пользователям с поиском самых свежих и качественных инфопродуктов. За 4 с небольшим месяца мы создали этот форум на который заходят ежедневно тысячи человек и посещаемость постоянно растёт. Мы создали панель лицензирования для защиты PHP скриптов от воровства и SEO панель для мониторинга наших сайтов и выбора верной стратегии их развития. Мы надеемся что то что мы создали пригодится Вам и возможно Вы поможете нам развиваться и совершенствоваться вместе с Вами.

Статистика форума

Темы
405.476
Сообщения
462.589
Пользователи
80.678
Новый пользователь
lesopic

Приложения форума для iOS и Android


У ркн там нет власти ;)
Приватные разговоры
Помощь Пользователи
    Вы не присоединились ни к одной комнате.