За последнюю неделю опубликовано 47 новых материалов.
Инструкция новичку Путеводитель по форуму Прокси для Telegram Показать подсказки , это бомба!

Скачать Война и мир (1965-1967) WEB-DLRip-AVC от New-Team бесплатно через торрент

  • Поучаствуй (в качестве покупателя) в любых пяти совместных покупках (кроме завершённых и "Моментальных") и получи группу "Новичок" навсегда -> ссылка на раздел
  • Получай до 480 рублей за каждого приглашенного пользователя!
    представляем Вам очередное расширение партнерской программы, подробности описаны тут -> ссылка
  • 90% материалов доступно к скачиванию после простой регистрации!
    Если же ты хочешь скачивать материалы без требования оставлять отзывы то получи группу "Новичок", 10 способов повышения описаны тут -> ссылка
  • К сожалению количество битых ссылок растет и мы уже не можем их оперативно восстанавливать поэтому просим помощи у каждого нашего пользователя.
    С сегодняшнего дня, за каждую восстановленную ссылку мы заплатим Вам.
    Подробнее тут -> ссылка
  • Перенесем твои заслуги с другого ресурса!
    Мы понимаем как сложно прокачивать аккаунты на форумах, вроде раскачал аккаунт, а тут появляется ресурс в 100 раз круче но тоже с системой прокачки и снова качать аккаунт...
    Предлагаем вам перенести Ваши заслуги на другом подобном ресурсе к нам.
    Подробности описаны тут -> ссылка
  • Вы можете получать по 2.5% с каждой покупки и продажи на маркете! Подробности в теме Партнёрская программа
Если Вы не хотите скачивать, Вы всегда можетепосмотретьонлайн, просто нажмите кнопку ниже :

Открыть плеер

Torrent_Bot

Торрент-Бот
Бот форума
4 Окт 2016
93
160
20

Страна: СССР
Производство: Мосфильм

Жанр: драма, военный, история
Год выпуска: 1965-1967
Продолжительность: 06:44:37 (02:20:43 + 01:33:35 + 01:18:00 + 01:32:19)

Перевод: Не требуется
Cубтитры: нет
Оригинальная аудиодорожка: русский

Режиссер: Сергей Бондарчук

В ролях:
Вячеслав Тихонов, Сергей Бондарчук, Людмила Савельева, Виктор Станицын, Кира Головко, Олег Табаков, Николай Кодин, Сергей Ермилов, Анатолий Кторов, Ирина Губанова, Антонина Шуранова, Анастасия Вертинская, Борис Смирнов, Ирина Скобцева, Василий Лановой, Олег Ефремов, Эдуард Марцевич, Борис Захава, Николай Трофимов, Гиули Чохонелидзе, Николай Рыбников, Виктор Мурганов, Владислав Стржельчик, Вадим Сафронов, Николай Бубнов, Николай Толкачёв, Елена Тяпкина, Клавдия Половикова, Ангелина Степанова, Джемма Фирсова, Галина Кравченко, Иван Соловьёв, Юрий Чекулаев, Пётр Савин, Александр Смирнов, Василий Бадаев, Георгий Шаповалов, Иван Турченков, Николай Хрящиков, Семён Свашенко, Александр Кузнецов (VII), Александр Лебедев, Николай Сморчков, Иван Жеваго, Михаил Воробьёв, Алексей Бахарь, Е. Шаламов, Александр Борисов, Нонна Мордюкова, Александр Сёмин (II), Хербертс Зоммерс, Янис Грантиньш, Дз. Эйзенталс, А. Болдырев, Александр Дегтярь, Денис Сиваков, Н. Сорокин, Михаил Храбров, Станислав Чекан, Жан-Клод Баллар, Георгий Милляр, Борис Молчанов, Лев Поляков, Владимир Приходько, Даниил Нетребин...
Об актёрах подробней

Описание:
Эпическое кинополотно известнейшего советского кинорежиссера Сергея Бондарчука по роману Льва Толстого «Война и мир» с участием всех звезд советского кинематографа.






Исходник: WEB-DL 1080p
Тип релиза: WEB-DLRip-AVC
Контейнер: MKV

Видео: 1024x434 (2,35:1), 25,000 кадра/сек, H264 ~ 1735 кбит/сек, 0.156 бит/пиксель
Аудио: 48 kHz, Dolby Digital AC3 5.1, 386 кбит/сек

Раздача от:
MediaInfo
Общее
Полное имя : Voyna.i.mir.1965-1967.WEB-DLRip-AVC_[New-team]_by_AVP_Studio.mkv
Формат : Matroska
Версия формата : Version 2
Размер файла : 2,09 Гбайт
Продолжительность : 2 ч. 20 м.
Общий поток : 2121 Кбит/сек
Дата кодирования : UTC 2020-07-27 16:41:38
Программа кодирования : mkvmerge v6.9.1 ('Blue Panther') 32bit built on Apr 18 2014 18:15:44
Библиотека кодирования : libebml v1.3.0 + libmatroska v1.4.1

Видео
Идентификатор : 1
Формат : AVC
Формат/Информация : Advanced Video Codec
Профиль формата : [email protected]
Настройки формата : CABAC / 10 Ref Frames
Параметр CABAC формата : Да
Параметр RefFrames формата : 10 кадров
Идентификатор кодека : V_MPEG4/ISO/AVC
Продолжительность : 2 ч. 20 м.
Битрейт : 1735 Кбит/сек
Ширина : 1024 пикселя
Высота : 434 пикселя
Соотношение сторон : 2,35:1
Режим частоты кадров : Постоянный
Частота кадров : 25,000 кадров/сек
Цветовое пространство : YUV
Субдискретизация насыщенности : 4:2:0
Битовая глубина : 8 бит
Тип развёртки : Прогрессивная
Бит/(Пиксели*Кадры) : 0.156
Размер потока : 1,67 Гбайт (80%)
Библиотека кодирования : x264 core 160 r3000 33f9e14
Настройки программы : cabac=1 / ref=10 / deblock=1:-2:-1 / analyse=0x3:0x113 / me=umh / subme=10 / psy=1 / psy_rd=1.00:0.00 / mixed_ref=1 / me_range=32 / chroma_me=1 / trellis=2 / 8x8dct=1 / cqm=0 / deadzone=21,11 / fast_pskip=1 / chroma_qp_offset=-2 / threads=6 / lookahead_threads=1 / sliced_threads=0 / nr=0 / decimate=0 / interlaced=0 / bluray_compat=0 / constrained_intra=0 / bframes=8 / b_pyramid=2 / b_adapt=2 / b_bias=0 / direct=3 / weightb=1 / open_gop=0 / weightp=2 / keyint=250 / keyint_min=25 / scenecut=40 / intra_refresh=0 / rc=2pass / mbtree=0 / bitrate=1735 / ratetol=1.0 / qcomp=0.60 / qpmin=0 / qpmax=69 / qpstep=4 / cplxblur=20.0 / qblur=0.5 / ip_ratio=1.40 / pb_ratio=1.30 / aq=1:1.00
Default : Да
Forced : Нет

Аудио
Идентификатор : 2
Формат : AC-3
Формат/Информация : Audio Coding 3
Коммерческое название : Dolby Digital
Идентификатор кодека : A_AC3
Продолжительность : 2 ч. 20 м.
Вид битрейта : Постоянный
Битрейт : 384 Кбит/сек
Каналы : 6 каналов
ChannelLayout : L R C LFE Ls Rs
Частота : 48,0 КГц
Частота кадров : 31,250 кадров/сек (1536 SPF)
Метод сжатия : С потерями
Размер потока : 386 Мбайт (18%)
Default : Да
Forced : Нет
Скриншоты
 

Вложения

  • 16,2 KB Просмотры: 0
    Личеров 0
    Сидеров 0
    Файлов 4
    Объем 6 GB

Привет!

Мы группа людей которые решили помочь другим в решении их проблем, а так же пользователям с поиском самых свежих и качественных инфопродуктов. За 4 с небольшим месяца мы создали этот форум на который заходят ежедневно тысячи человек и посещаемость постоянно растёт. Мы создали панель лицензирования для защиты PHP скриптов от воровства и SEO панель для мониторинга наших сайтов и выбора верной стратегии их развития. Мы надеемся что то что мы создали пригодится Вам и возможно Вы поможете нам развиваться и совершенствоваться вместе с Вами.

Статистика форума

Темы
406.639
Сообщения
465.112
Пользователи
84.583
Новый пользователь
кцукецукцукцу

Приложения форума для iOS и Android


У ркн там нет власти ;)
Приватные разговоры
Помощь Пользователи
    Вы не присоединились ни к одной комнате.