За последнюю неделю опубликовано 43 новых материалов.
Инструкция новичку Путеводитель по форуму Прокси для Telegram Показать подсказки , это бомба!

Скачать Во власти стихии / Adrift (2018) BDRemux 1080p от ExKinoRay | D, P | iTunes бесплатно через торрент

  • Поучаствуй (в качестве покупателя) в любых пяти совместных покупках (кроме завершённых и "Моментальных") и получи группу "Новичок" навсегда -> ссылка на раздел
  • Получай до 480 рублей за каждого приглашенного пользователя!
    представляем Вам очередное расширение партнерской программы, подробности описаны тут -> ссылка
  • 90% материалов доступно к скачиванию после простой регистрации!
    Если же ты хочешь скачивать материалы без требования оставлять отзывы то получи группу "Новичок", 10 способов повышения описаны тут -> ссылка
  • К сожалению количество битых ссылок растет и мы уже не можем их оперативно восстанавливать поэтому просим помощи у каждого нашего пользователя.
    С сегодняшнего дня, за каждую восстановленную ссылку мы заплатим Вам.
    Подробнее тут -> ссылка
  • Перенесем твои заслуги с другого ресурса!
    Мы понимаем как сложно прокачивать аккаунты на форумах, вроде раскачал аккаунт, а тут появляется ресурс в 100 раз круче но тоже с системой прокачки и снова качать аккаунт...
    Предлагаем вам перенести Ваши заслуги на другом подобном ресурсе к нам.
    Подробности описаны тут -> ссылка
  • Вы можете получать по 2.5% с каждой покупки и продажи на маркете! Подробности в теме Партнёрская программа
Если Вы не хотите скачивать, Вы всегда можетепосмотретьонлайн, просто нажмите кнопку ниже :

Открыть плеер

Torrent_Bot

Торрент-Бот
Бот форума
4 Окт 2016
93
160
20

Информация о фильме
Название: Во власти стихии
Оригинальное название: Adrift
Год выхода: 2018
Жанр: Боевик, триллер, драма, мелодрама, приключения
Режиссер: Бальтасар Кормакур
В ролях: Шейлин Вудли, Сэм Клафлин, Грэйс Палмер, Джеффри Томас, Тэми Эшкрафт, Элизабет Хоторн, Зак Бересфорд, Луна Кэмпбелл, Сиале Тунока



О фильме: Их неожиданная встреча на Таити стала началом большой любви. Молодые и свободные, они отправляются в путешествие по Тихому океану на роскошной яхте. Неожиданно судно настигает один из самых мощных ураганов в истории, и отныне не только их будущее, но и сама жизнь находится во власти стихии…

Страна: США
Студия: Huayi Brothers, Lakeshore Entertainment, RVK Studios
Продолжительность: 01:36:47
Перевод(ы):
#1: Дублированный | iTunes
#2: Профессиональный многоголосый | HDRezka Studio

Качество: BDRemux 1080p
Видео: MPEG-4 AVC, 1920x1080, 34.3 Mbit/s, 23.976 fps
Звук:
Аудио #01: 48 kHz, AC3, 5.1, 384 Kbps | iTunes | RUS |
Аудио #02: 48 kHz, AC3, 5.1, 640 Kbps | HDRezka Studio | RUS |
Аудио #03: 48 kHz, AC3, 5.1, 384 Kbps | iTunes | UKR |
Аудио #04: 48 kHz, AC3, 7.1, 4565 Kbps | Оригинал | ENG |
Субтитры: Английские



MI
General
Unique ID : 181606490055570057490928640304038119038 (0x88A023423A5BC4E3D124C6E57F55867E)
Complete name : D:Video111Adrift.2018.BDREMUX.1080p.ExKinoRay.mkv
Format : Matroska
Format version : Version 4 / Version 2
File size : 27.2 GiB
Duration : 1 h 36 min
Overall bit rate mode : Variable
Overall bit rate : 40.3 Mb/s
Movie name : Adrift 2018 from ExKinoRay
Encoded date : UTC 2018-08-28 18:31:11
Writing application : mkvmerge v23.0.0 ('The Bride Said No') 64-bit
Writing library : libebml v1.3.6 + libmatroska v1.4.9

Video
ID : 1
Format : AVC
Format/Info : Advanced Video Codec
Format profile : [email protected]
Format settings : CABAC / 4 Ref Frames
Format settings, CABAC : Yes
Format settings, ReFrames : 4 frames
Format settings, GOP : M=3, N=12
Codec ID : V_MPEG4/ISO/AVC
Duration : 1 h 36 min
Bit rate mode : Variable
Bit rate : 34.3 Mb/s
Maximum bit rate : 38.3 Mb/s
Width : 1 920 pixels
Height : 1 080 pixels
Display aspect ratio : 16:9
Frame rate mode : Constant
Frame rate : 23.976 (24000/1001) FPS
Color space : YUV
Chroma subsampling : 4:2:0
Bit depth : 8 bits
Scan type : Progressive
Bits/(Pixel*Frame) : 0.690
Stream size : 23.2 GiB (85%)
Language : English
Default : Yes
Forced : No

Audio #1
ID : 2
Format : AC-3
Format/Info : Audio Coding 3
Commercial name : Dolby Digital
Codec ID : A_AC3
Duration : 1 h 36 min
Bit rate mode : Constant
Bit rate : 384 kb/s
Channel(s) : 6 channels
Channel positions : Front: L C R, Side: L R, LFE
Sampling rate : 48.0 kHz
Frame rate : 31.250 FPS (1536 SPF)
Bit depth : 16 bits
Compression mode : Lossy
Stream size : 266 MiB (1%)
Title : iTunes
Language : Russian
Service kind : Complete Main
Default : Yes
Forced : Yes

Audio #2
ID : 3
Format : AC-3
Format/Info : Audio Coding 3
Commercial name : Dolby Digital
Codec ID : A_AC3
Duration : 1 h 36 min
Bit rate mode : Constant
Bit rate : 640 kb/s
Channel(s) : 6 channels
Channel positions : Front: L C R, Side: L R, LFE
Sampling rate : 48.0 kHz
Frame rate : 31.250 FPS (1536 SPF)
Bit depth : 16 bits
Compression mode : Lossy
Stream size : 443 MiB (2%)
Title : MVO [HDRezka Studio]
Language : Russian
Service kind : Complete Main
Default : No
Forced : No

Audio #3
ID : 4
Format : AC-3
Format/Info : Audio Coding 3
Commercial name : Dolby Digital
Codec ID : A_AC3
Duration : 1 h 36 min
Bit rate mode : Constant
Bit rate : 384 kb/s
Channel(s) : 6 channels
Channel positions : Front: L C R, Side: L R, LFE
Sampling rate : 48.0 kHz
Frame rate : 31.250 FPS (1536 SPF)
Bit depth : 16 bits
Compression mode : Lossy
Stream size : 266 MiB (1%)
Title : iTunes
Language : Ukrainian
Service kind : Complete Main
Default : No
Forced : No

Audio #4
ID : 5
Format : DTS
Format/Info : Digital Theater Systems
Format profile : MA / Core
Codec ID : A_DTS
Duration : 1 h 36 min
Bit rate mode : Variable / Constant
Bit rate : 4 565 kb/s / 1 509 kb/s
Channel(s) : 8 channels / 6 channels
Channel positions : Front: L C R, Side: L R, Back: L R, LFE / Front: L C R, Side: L R, LFE
Sampling rate : 48.0 kHz
Frame rate : 93.750 FPS (512 SPF)
Bit depth : 24 bits
Compression mode : Lossless / Lossy
Stream size : 3.09 GiB (11%)
Title : Original
Language : English
Default : No
Forced : No

Text
ID : 6
Format : UTF-8
Codec ID : S_TEXT/UTF8
Codec ID/Info : UTF-8 Plain Text
Duration : 1 h 27 min
Bit rate : 35 b/s
Count of elements : 913
Stream size : 22.6 KiB (0%)
Language : English
Default : No
Forced : No

Menu
00:00:00.000 : en:00:00:00.000
00:05:18.944 : en:00:05:18.944
00:08:04.401 : en:00:08:04.401
00:14:01.257 : en:00:14:01.257
00:19:38.010 : en:00:19:38.010
00:24:46.568 : en:00:24:46.568
00:29:42.572 : en:00:29:42.572
00:34:45.709 : en:00:34:45.709
00:37:20.947 : en:00:37:20.947
00:43:30.024 : en:00:43:30.024
00:49:43.564 : en:00:49:43.564
00:52:40.532 : en:00:52:40.532
00:58:12.447 : en:00:58:12.447
01:06:31.029 : en:01:06:31.029
01:11:19.650 : en:01:11:19.650
01:14:07.151 : en:01:14:07.151
01:18:06.974 : en:01:18:06.974
01:24:15.550 : en:01:24:15.550
01:27:22.446 : en:01:27:22.446
01:31:34.489 : en:01:31:34.489

Релиз от:

Автор релиза:
 

Вложения

  • 273,3 KB Просмотры: 1
    Личеров 0
    Сидеров 0
    Файлов 1
    Объем 27,2 GB

Привет!

Мы группа людей которые решили помочь другим в решении их проблем, а так же пользователям с поиском самых свежих и качественных инфопродуктов. За 4 с небольшим месяца мы создали этот форум на который заходят ежедневно тысячи человек и посещаемость постоянно растёт. Мы создали панель лицензирования для защиты PHP скриптов от воровства и SEO панель для мониторинга наших сайтов и выбора верной стратегии их развития. Мы надеемся что то что мы создали пригодится Вам и возможно Вы поможете нам развиваться и совершенствоваться вместе с Вами.

Статистика форума

Темы
406.636
Сообщения
465.109
Пользователи
84.613
Новый пользователь
Damir22

Приложения форума для iOS и Android


У ркн там нет власти ;)
Приватные разговоры
Помощь Пользователи
    Вы не присоединились ни к одной комнате.