За последнюю неделю опубликовано 32 новых материалов.
Инструкция новичку Путеводитель по форуму Прокси для Telegram Показать подсказки , это бомба!

Скачать Влюбись в меня, если осмелишься / Jeux d'enfants / Love Me If You Dare (2003) BDRip 1080p от Scarabey | D бесплатно через торрент

  • Поучаствуй (в качестве покупателя) в любых пяти совместных покупках (кроме завершённых и "Моментальных") и получи группу "Новичок" навсегда -> ссылка на раздел
  • Получай до 480 рублей за каждого приглашенного пользователя!
    представляем Вам очередное расширение партнерской программы, подробности описаны тут -> ссылка
  • 90% материалов доступно к скачиванию после простой регистрации!
    Если же ты хочешь скачивать материалы без требования оставлять отзывы то получи группу "Новичок", 10 способов повышения описаны тут -> ссылка
  • К сожалению количество битых ссылок растет и мы уже не можем их оперативно восстанавливать поэтому просим помощи у каждого нашего пользователя.
    С сегодняшнего дня, за каждую восстановленную ссылку мы заплатим Вам.
    Подробнее тут -> ссылка
  • Перенесем твои заслуги с другого ресурса!
    Мы понимаем как сложно прокачивать аккаунты на форумах, вроде раскачал аккаунт, а тут появляется ресурс в 100 раз круче но тоже с системой прокачки и снова качать аккаунт...
    Предлагаем вам перенести Ваши заслуги на другом подобном ресурсе к нам.
    Подробности описаны тут -> ссылка
  • Вы можете получать по 2.5% с каждой покупки и продажи на маркете! Подробности в теме Партнёрская программа
Если Вы не хотите скачивать, Вы всегда можетепосмотретьонлайн, просто нажмите кнопку ниже :

Открыть плеер

Torrent_Bot

Торрент-Бот
Бот форума
4 Окт 2016
93
160
20

Мы "В КОНТАКТЕ" =)





Год выпуска: 2003
Страна: Франция, Бельгия
Жанр: драма, мелодрама
Продолжительность: 01:30:19
Перевод: Профессиональный (полное дублирование)
Субтитры: нет

Режиссер: Янн Самюэль / Yann Samuell

В ролях: Гийом Кане, Марион Котийяр, Тибо Верхак, Жозефин Леба-Жоли, Эммануэль Грёнвольд, Жерар Уоткинс, Жиль Леллуш, Жюлия Фор, Литиция Венеция Тарновска, Элоди Наварр

Описание: Судьба свела их не зря: вдвоем они составили странную, но гармоничную пару. Они родились великими выдумщиками, такими, от которых стонала школа. Их проделки можно было бы осудить и окрестить их закоренелыми хулиганами, если бы эти двое не были просто маленькими детьми. Они придумали игру, такую, которую могли придумать только они, игру "осмелишься – не осмелишься". Они брали друг друга "на слабо". Игра росла вместе с ними, и однажды они стали взрослыми. Все изменилось, но они уже не могли отличить игру от жизни, потому что игра была их жизнью. Никто не хотел уступать. Они делали друг другу больно, они страдали, они теряли годы: Они знали, что любят друг друга, они произносили эти слова, но игра возвращалась, не позволяя им стать просто мужчиной и женщиной...

Качество видео:BDRip 1080p
Формат видео: AVI

Видео: 1920х1010, 25.000 fps, AVC, ~11900 kbps avg
Аудио: 48 kHz, AC3 Dolby Digital, 3/2 (L,C,R,l,r) + LFE ch, ~448 kbps

Релиз от:



MI
Love.Me.If.You.Dare.2003.1080p_BDRip_[scarabey.org].mkv
Format : Matroska
Format version : Version 2
File size : 7.93 GiB
Duration : 1 h 30 min
Overall bit rate : 12.6 Mb/s
Encoded date : UTC 2020-07-26 10:17:16
Writing application : mkvmerge v7.8.0 ('River Man') 32bit built on Apr 3 2015 12:11:22
Writing library : libebml v1.3.1 + libmatroska v1.4.2

Video
ID : 1
Format : AVC
Format/Info : Advanced Video Codec
Format profile : [email protected]
Format settings : CABAC / 4 Ref Frames
Format settings, CABAC : Yes
Format settings, Reference frames : 4 frames
Codec ID : V_MPEG4/ISO/AVC
Duration : 1 h 30 min
Bit rate : 11.9 Mb/s
Width : 1 920 pixels
Height : 1 010 pixels
Display aspect ratio : 1.901
Frame rate mode : Constant
Frame rate : 25.000 FPS
Color space : YUV
Chroma subsampling : 4:2:0
Bit depth : 8 bits
Scan type : Progressive
Bits/(Pixel*Frame) : 0.245
Stream size : 7.49 GiB (94%)
Writing library : x264 core 142 r2491 24e4fed
Encoding settings : cabac=1 / ref=4 / deblock=1:-3:-3 / analyse=0x3:0x133 / me=umh / subme=10 / psy=1 / psy_rd=1.00:0.00 / mixed_ref=1 / me_range=48 / chroma_me=1 / trellis=2 / 8x8dct=1 / cqm=0 / deadzone=21,11 / fast_pskip=0 / chroma_qp_offset=-2 / threads=12 / lookahead_threads=2 / sliced_threads=0 / nr=0 / decimate=0 / interlaced=0 / bluray_compat=0 / constrained_intra=0 / bframes=9 / b_pyramid=2 / b_adapt=2 / b_bias=0 / direct=3 / weightb=1 / open_gop=0 / weightp=2 / keyint=250 / keyint_min=25 / scenecut=40 / intra_refresh=0 / rc_lookahead=60 / rc=crf / mbtree=0 / crf=17.5 / qcomp=0.70 / qpmin=0 / qpmax=69 / qpstep=4 / vbv_maxrate=45000 / vbv_bufsize=45000 / crf_max=0.0 / nal_hrd=none / filler=0 / ip_ratio=1.40 / pb_ratio=1.30 / aq=2:0.80
Default : Yes
Forced : No

Audio
ID : 2
Format : AC-3
Format/Info : Audio Coding 3
Commercial name : Dolby Digital
Codec ID : A_AC3
Duration : 1 h 30 min
Bit rate mode : Constant
Bit rate : 448 kb/s
Channel(s) : 6 channels
Channel layout : L R C LFE Ls Rs
Sampling rate : 48.0 kHz
Frame rate : 31.250 FPS (1536 SPF)
Compression mode : Lossy
Stream size : 289 MiB (4%)
Title : Дубляж
Language : Russian
Service kind : Complete Main
Default : Yes
Forced : No

Menu
00:00:00.000 : en:Chapter 01
00:08:10.240 : en:Chapter 02
00:16:48.160 : en:Chapter 03
00:26:54.560 : en:Chapter 04
00:35:21.200 : en:Chapter 05
00:46:28.920 : en:Chapter 06
00:54:19.600 : en:Chapter 07
01:00:35.120 : en:Chapter 08
01:10:35.800 : en:Chapter 09
01:15:31.520 : en:Chapter 10
01:20:36.200 : en:Chapter 11
01:25:34.000 : en:Chapter 12
01:30:25.960 : en:Chapter 13

 

Вложения

  • 40,6 KB Просмотры: 0
    Личеров 0
    Сидеров 0
    Файлов 1
    Объем 7,9 GB

Привет!

Мы группа людей которые решили помочь другим в решении их проблем, а так же пользователям с поиском самых свежих и качественных инфопродуктов. За 4 с небольшим месяца мы создали этот форум на который заходят ежедневно тысячи человек и посещаемость постоянно растёт. Мы создали панель лицензирования для защиты PHP скриптов от воровства и SEO панель для мониторинга наших сайтов и выбора верной стратегии их развития. Мы надеемся что то что мы создали пригодится Вам и возможно Вы поможете нам развиваться и совершенствоваться вместе с Вами.

Статистика форума

Темы
406.616
Сообщения
465.078
Пользователи
84.484
Новый пользователь
Beatlman

Приложения форума для iOS и Android


У ркн там нет власти ;)
Приватные разговоры
Помощь Пользователи
    Вы не присоединились ни к одной комнате.