За последнюю неделю опубликовано 62 новых материалов.
Инструкция новичку Путеводитель по форуму Прокси для Telegram Показать подсказки , это бомба!

Скачать Власть / Vice (2018) BDRip-AVC от MediaBit | D, P, A бесплатно через торрент

  • Поучаствуй (в качестве покупателя) в любых пяти совместных покупках (кроме завершённых и "Моментальных") и получи группу "Новичок" навсегда -> ссылка на раздел
  • Получай до 480 рублей за каждого приглашенного пользователя!
    представляем Вам очередное расширение партнерской программы, подробности описаны тут -> ссылка
  • 90% материалов доступно к скачиванию после простой регистрации!
    Если же ты хочешь скачивать материалы без требования оставлять отзывы то получи группу "Новичок", 10 способов повышения описаны тут -> ссылка
  • К сожалению количество битых ссылок растет и мы уже не можем их оперативно восстанавливать поэтому просим помощи у каждого нашего пользователя.
    С сегодняшнего дня, за каждую восстановленную ссылку мы заплатим Вам.
    Подробнее тут -> ссылка
  • Перенесем твои заслуги с другого ресурса!
    Мы понимаем как сложно прокачивать аккаунты на форумах, вроде раскачал аккаунт, а тут появляется ресурс в 100 раз круче но тоже с системой прокачки и снова качать аккаунт...
    Предлагаем вам перенести Ваши заслуги на другом подобном ресурсе к нам.
    Подробности описаны тут -> ссылка
  • Вы можете получать по 2.5% с каждой покупки и продажи на маркете! Подробности в теме Партнёрская программа
Если Вы не хотите скачивать, Вы всегда можетепосмотретьонлайн, просто нажмите кнопку ниже :

Открыть плеер

Torrent_Bot

Торрент-Бот
Бот форума
4 Окт 2016
92
160
20



Информация о фильме
Название: Власть
Оригинальное название: Vice
Год выхода: 2018
Жанр: Драма, комедия, биография, история
Режиссер: Адам МакКей
В ролях: Кристиан Бэйл, Эми Адамс, Стив Карелл, Сэм Рокуэлл, Элисон Пилл, Эдди Марсан, Джастин Кирк, Лиза Гэй Хэмилтон, Джесси Племонс, Билл Кэмп, Дон МакМанус, Лили Рэйб, Шей Уигэм, Стивен Эдли Гуиргис, Камилль Джеймс Харман, Джиллиан Арменанте, Мэттью Джейкобс

О фильме: Сюжет фильма рассказывает об американском политике Дике Чейне, который во времена правления Джорджа Буша младшего занимал пост вице-премьера. Очень долгое время он проработал в президентских администрациях, и его путь к вершине Олимпа был очень непростым. Этот человек всегда предпочитал оставаться в тени, но при этом имел очень сильное влияние на лидеров. Он буквально управлял ими, достигая таким образом свои цели. Дик всегда активно высказывался за начало войны с терроризмом. Обладая очень гибким умом и даром убеждения, Дик проложил себе путь к успеху. Он добился многого, но в 2009 году принял решение покинуть пост...



Страна: США
Студия: Annapurna Pictures, Gary Sanchez Productions, Plan B Entertainment
Продолжительность: 02:12:27
Перевод: Дублированный, профессиональный многоголосый, авторский

Файл
Кодек: MPEG-4 AVC
Качество: BDRip-AVC
Видео: 2057 Кбит/с, 1024x428, 23.976 кадр/с
Звук:
Аудио #1: AC3, 48 Гц, 384 Кбит/сек, 6 ch (L C R, + L R, LFE) | Русский | DUB | iTunes
Аудио #2: AC3, 48 Гц, 448 Кбит/сек, 6 ch (L C R, + L R, LFE) | Русский | MVO | HDRezka Studio
Аудио #3: AC3, 48 Гц, 448 Кбит/сек, 6 ch (L C R, + L R, LFE) | Русский | AVO | Юрий Сербин
Аудио #4: AC3, 48 Гц, 384 Кбит/сек, 6 ch (L C R, + L R, LFE) | Украинский | DUB | iTunes
Аудио #5: AC3, 48 Гц, 448 Кбит/сек, 6 ch (L C R, + L R, LFE) | Английский
Субтитры: Русские, английские

Семпл
MI
Общее
Уникальный идентификатор : 216804634676376199389834479738198124786 (0xA31B0DC5DEE43FE3D0C5539790E368F2)
Полное имя : D:2020 рипыВластьVlasti.2018.x264.BDRip(AVC)-MediaBit.mkv
Формат : Matroska
Версия формата : Version 4
Размер файла : 3,86 Гбайт
Продолжительность : 2 ч. 12 м.
Общий поток : 4 170 Кбит/сек
Название фильма : Власть / Vice (2018) - MediaBit
Дата кодирования : UTC 2020-07-18 19:33:12
Программа кодирования : mkvmerge v25.0.0 ('Prog Noir') 64-bit
Библиотека кодирования : libebml v1.3.6 + libmatroska v1.4.9

Видео
Идентификатор : 1
Формат : AVC
Формат/Информация : Advanced Video Codec
Профиль формата : [email protected]
Настройки формата : CABAC / 11 Ref Frames
Параметр CABAC формата : Да
Параметр RefFrames формата : 11 кадров
Идентификатор кодека : V_MPEG4/ISO/AVC
Продолжительность : 2 ч. 12 м.
Битрейт : 2 057 Кбит/сек
Ширина : 1 024 пикселя
Высота : 428 пикселей
Соотношение сторон : 2,40:1
Режим частоты кадров : Постоянный
Частота кадров : 23,976 (24000/1001) кадра/сек
Цветовое пространство : YUV
Субдискретизация насыщенности : 4:2:0
Битовая глубина : 8 бит
Тип развёртки : Прогрессивная
Бит/(Пиксели*Кадры) : 0.196
Размер потока : 1,90 Гбайт (49%)
Заголовок : MediaBit
Библиотека кодирования : x264 core 146 r2538 121396c
Настройки программы : cabac=1 / ref=11 / deblock=1:-3:-3 / analyse=0x3:0x113 / me=umh / subme=11 / psy=1 / psy_rd=1.00:0.20 / mixed_ref=1 / me_range=32 / chroma_me=1 / trellis=2 / 8x8dct=1 / cqm=0 / deadzone=21,11 / fast_pskip=0 / chroma_qp_offset=-3 / threads=6 / lookahead_threads=1 / sliced_threads=0 / nr=0 / decimate=0 / interlaced=0 / bluray_compat=0 / constrained_intra=0 / bframes=11 / b_pyramid=2 / b_adapt=2 / b_bias=0 / direct=3 / weightb=1 / open_gop=1 / weightp=2 / keyint=240 / keyint_min=23 / scenecut=40 / intra_refresh=0 / rc_lookahead=40 / rc=2pass / mbtree=0 / bitrate=2057 / ratetol=1.0 / qcomp=0.60 / qpmin=0 / qpmax=69 / qpstep=4 / cplxblur=20.0 / qblur=0.5 / vbv_maxrate=14000 / vbv_bufsize=14000 / nal_hrd=none / filler=0 / ip_ratio=1.40 / pb_ratio=1.30 / aq=1:1.00
Язык : Russian
Default : Да
Forced : Нет

Аудио #1
Идентификатор : 2
Формат : AC-3
Формат/Информация : Audio Coding 3
Коммерческое название : Dolby Digital
Идентификатор кодека : A_AC3
Продолжительность : 2 ч. 12 м.
Вид битрейта : Постоянный
Битрейт : 384 Кбит/сек
Каналы : 6 каналов
Channel layout : L R C LFE Ls Rs
Частота : 48,0 КГц
Частота кадров : 31,250 кадров/сек (1536 SPF)
Метод сжатия : С потерями
Размер потока : 364 Мбайт (9%)
Заголовок : DUB | iTunes
Язык : Russian
Service kind : Complete Main
Default : Да
Forced : Нет

Аудио #2
Идентификатор : 3
Формат : AC-3
Формат/Информация : Audio Coding 3
Коммерческое название : Dolby Digital
Идентификатор кодека : A_AC3
Продолжительность : 2 ч. 12 м.
Вид битрейта : Постоянный
Битрейт : 448 Кбит/сек
Каналы : 6 каналов
Channel layout : L R C LFE Ls Rs
Частота : 48,0 КГц
Частота кадров : 31,250 кадров/сек (1536 SPF)
Метод сжатия : С потерями
Размер потока : 424 Мбайт (11%)
Заголовок : MVO | HDRezka Studio|
Язык : Russian
Service kind : Complete Main
Default : Нет
Forced : Нет

Аудио #3
Идентификатор : 4
Формат : AC-3
Формат/Информация : Audio Coding 3
Коммерческое название : Dolby Digital
Идентификатор кодека : A_AC3
Продолжительность : 2 ч. 12 м.
Вид битрейта : Постоянный
Битрейт : 448 Кбит/сек
Каналы : 6 каналов
Channel layout : L R C LFE Ls Rs
Частота : 48,0 КГц
Частота кадров : 31,250 кадров/сек (1536 SPF)
Метод сжатия : С потерями
Размер потока : 424 Мбайт (11%)
Заголовок : AVO | Сербин
Язык : Russian
Service kind : Complete Main
Default : Нет
Forced : Нет

Аудио #4
Идентификатор : 5
Формат : AC-3
Формат/Информация : Audio Coding 3
Коммерческое название : Dolby Digital
Идентификатор кодека : A_AC3
Продолжительность : 2 ч. 12 м.
Вид битрейта : Постоянный
Битрейт : 384 Кбит/сек
Каналы : 6 каналов
Channel layout : L R C LFE Ls Rs
Частота : 48,0 КГц
Частота кадров : 31,250 кадров/сек (1536 SPF)
Метод сжатия : С потерями
Размер потока : 364 Мбайт (9%)
Заголовок : Украинский | DUB | iTunes
Язык : Ukrainian
Service kind : Complete Main
Default : Нет
Forced : Нет

Аудио #5
Идентификатор : 6
Формат : AC-3
Формат/Информация : Audio Coding 3
Коммерческое название : Dolby Digital
Идентификатор кодека : A_AC3
Продолжительность : 2 ч. 12 м.
Вид битрейта : Постоянный
Битрейт : 448 Кбит/сек
Каналы : 6 каналов
Channel layout : L R C LFE Ls Rs
Частота : 48,0 КГц
Частота кадров : 31,250 кадров/сек (1536 SPF)
Метод сжатия : С потерями
Размер потока : 424 Мбайт (11%)
Заголовок : Original
Язык : Russian
Service kind : Complete Main
Default : Нет
Forced : Нет

Текст #1
Идентификатор : 7
Формат : UTF-8
Идентификатор кодека : S_TEXT/UTF8
Идентификатор кодека/Информация : UTF-8 Plain Text
Продолжительность : 1 ч. 59 м.
Битрейт : 4 бит/сек
Count of elements : 60
Размер потока : 4,36 Кбайт (0%)
Заголовок : Fors (HDRezka)
Язык : Russian
Default : Нет
Forced : Нет

Текст #2
Идентификатор : 8
Формат : UTF-8
Идентификатор кодека : S_TEXT/UTF8
Идентификатор кодека/Информация : UTF-8 Plain Text
Продолжительность : 2 ч. 5 м.
Битрейт : 130 бит/сек
Count of elements : 1735
Размер потока : 120 Кбайт (0%)
Язык : Russian
Default : Нет
Forced : Нет

Текст #3
Идентификатор : 9
Формат : UTF-8
Идентификатор кодека : S_TEXT/UTF8
Идентификатор кодека/Информация : UTF-8 Plain Text
Продолжительность : 2 ч. 5 м.
Битрейт : 133 бит/сек
Count of elements : 2289
Размер потока : 123 Кбайт (0%)
Заголовок : Focs
Язык : Russian
Default : Нет
Forced : Нет

Текст #4
Идентификатор : 10
Формат : UTF-8
Идентификатор кодека : S_TEXT/UTF8
Идентификатор кодека/Информация : UTF-8 Plain Text
Продолжительность : 2 ч. 4 м.
Битрейт : 82 бит/сек
Count of elements : 2319
Размер потока : 75,1 Кбайт (0%)
Язык : English
Default : Нет
Forced : Нет

Меню
00:00:00.000 : en:Chapter 1
00:03:05.602 : en:Chapter 2
00:07:50.804 : en:Chapter 3
00:13:33.980 : en:Chapter 4
00:19:29.919 : en:Chapter 5
00:26:39.348 : en:Chapter 6
00:33:10.447 : en:Chapter 7
00:37:50.852 : en:Chapter 8
00:42:01.728 : en:Chapter 9
00:51:35.467 : en:Chapter 10
00:56:00.899 : en:Chapter 11
01:00:24.204 : en:Chapter 12
01:06:50.548 : en:Chapter 13
01:10:11.249 : en:Chapter 14
01:13:14.432 : en:Chapter 15
01:17:04.078 : en:Chapter 16
01:23:49.149 : en:Chapter 17
01:26:43.532 : en:Chapter 18
01:34:42.302 : en:Chapter 19
01:39:09.443 : en:Chapter 20
01:44:44.987 : en:Chapter 21
01:49:41.158 : en:Chapter 22
01:59:18.860 : en:Chapter 23
02:02:20.208 : en:Chapter 24
Скриншоты

Релиз от:
 

Вложения

  • 22,5 KB Просмотры: 0
    Личеров 0
    Сидеров 0
    Файлов 1
    Объем 3,9 GB

Привет!

Мы группа людей которые решили помочь другим в решении их проблем, а так же пользователям с поиском самых свежих и качественных инфопродуктов. За 4 с небольшим месяца мы создали этот форум на который заходят ежедневно тысячи человек и посещаемость постоянно растёт. Мы создали панель лицензирования для защиты PHP скриптов от воровства и SEO панель для мониторинга наших сайтов и выбора верной стратегии их развития. Мы надеемся что то что мы создали пригодится Вам и возможно Вы поможете нам развиваться и совершенствоваться вместе с Вами.

Статистика форума

Темы
406.657
Сообщения
465.113
Пользователи
84.666
Новый пользователь
inqueto

Приложения форума для iOS и Android


У ркн там нет власти ;)
Приватные разговоры
Помощь Пользователи
    Вы не присоединились ни к одной комнате.