За последнюю неделю опубликовано 88 новых материалов.
Инструкция новичку Путеводитель по форуму Прокси для Telegram Показать подсказки , это бомба!

Скачать Владимир Пресняков и Наталья Подольская - Концерт на фестивле «Жара» [10.08] (2018) HDTV 1080i бесплатно через торрент

  • Поучаствуй (в качестве покупателя) в любых пяти совместных покупках (кроме завершённых и "Моментальных") и получи группу "Новичок" навсегда -> ссылка на раздел
  • Получай до 480 рублей за каждого приглашенного пользователя!
    представляем Вам очередное расширение партнерской программы, подробности описаны тут -> ссылка
  • 90% материалов доступно к скачиванию после простой регистрации!
    Если же ты хочешь скачивать материалы без требования оставлять отзывы то получи группу "Новичок", 10 способов повышения описаны тут -> ссылка
  • К сожалению количество битых ссылок растет и мы уже не можем их оперативно восстанавливать поэтому просим помощи у каждого нашего пользователя.
    С сегодняшнего дня, за каждую восстановленную ссылку мы заплатим Вам.
    Подробнее тут -> ссылка
  • Перенесем твои заслуги с другого ресурса!
    Мы понимаем как сложно прокачивать аккаунты на форумах, вроде раскачал аккаунт, а тут появляется ресурс в 100 раз круче но тоже с системой прокачки и снова качать аккаунт...
    Предлагаем вам перенести Ваши заслуги на другом подобном ресурсе к нам.
    Подробности описаны тут -> ссылка
  • Вы можете получать по 2.5% с каждой покупки и продажи на маркете! Подробности в теме Партнёрская программа

Torrent_Bot

Торрент-Бот
Бот форума
4 Окт 2016
102
153
20
Исполнитель: Владимир Пресняков и Наталья Подольская
Жанр:pOP
Год выпуска: 2018
Продолжительность: 00:46:49


Отдельная благодарность пользователю kuzmichm2196 за исходник.

Формат: MKV
Качество: HDTV 1080i
Видео кодек: H.264
Аудио кодек: AC-3
Видео: H264; 1920x1080 (16:9); 25.000 fps; ~8 608 kb/s
Аудио: AC-3 48000Hz stereo 384 Кбит/сек

Треклист
1. Владимир Пресняков - «Чёрное море»
2. Владимир Пресняков - «Птица»
3. Владимир Пресняков / Наталья Подольская - «Белый снег»
4. Владимир Пресняков - «Зурбаган»
5. Владимир Пресняков - «Слушая тишину»
6. Владимир Пресняков - «Если нет рядом тебя»
7. Владимир Пресняков - «Стюардесса по имени Жанна»
8. Владимир Пресняков - «Замок из дождя»
9. Леонид Агутин / Владимир Пресняков - «Аэропорты»
MedaInfo
Presnyakov_Zhara_2018.mkv
Format : Matroska
Format version : Version 4 / Version 2
File size : 3.02 GiB
Duration : 46 min 49 s
Overall bit rate : 9 241 kb/s
Writing application : Lavf57.71.100
Writing library : Lavf57.71.100
ErrorDetectionType : Per level 1

Video
ID : 1
Format : AVC
Format/Info : Advanced Video Codec
Format profile : High@L4
Format settings : CABAC / 4 Ref Frames
Format settings, CABAC : Yes
Format settings, ReFrames : 4 frames
Codec ID : V_MPEG4/ISO/AVC
Duration : 46 min 49 s
Bit rate : 8 673 kb/s
Width : 1 920 pixels
Height : 1 080 pixels
Display aspect ratio : 16:9
Frame rate mode : Constant
Frame rate : 25.000 FPS
Standard : Component
Color space : YUV
Chroma subsampling : 4:2:0
Bit depth : 8 bits
Scan type : Interlaced
Scan type, store method : Separated fields
Scan order : Top Field First
Bits/(Pixel*Frame) : 0.167
Stream size : 2.84 GiB (94%)
Default : Yes
Forced : No
Color range : Limited
Color primaries : BT.709
Transfer characteristics : BT.709
Matrix coefficients : BT.709
DURATION : 00:46:49,660000000

Audio
ID : 2
Format : AC-3
Format/Info : Audio Coding 3
Codec ID : A_AC3
Duration : 46 min 49 s
Bit rate mode : Constant
Bit rate : 384 kb/s
Channel(s) : 2 channels
Channel positions : Front: L R
Sampling rate : 48.0 kHz
Frame rate : 31.250 FPS (1536 SPF)
Bit depth : 16 bits
Compression mode : Lossy
Delay relative to video : 236 ms
Stream size : 129 MiB (4%)
Language : Russian
Service kind : Complete Main
Default : Yes
Forced : No
DURATION : 00:46:49,504000000
Скриншоты
 

Вложения

  • 61,3 KB Просмотры: 1
    Личеров 0
    Сидеров 0
    Файлов 1
    Объем 3 GB

Привет!

Мы группа людей которые решили помочь другим в решении их проблем, а так же пользователям с поиском самых свежих и качественных инфопродуктов. За 4 с небольшим месяца мы создали этот форум на который заходят ежедневно тысячи человек и посещаемость постоянно растёт. Мы создали панель лицензирования для защиты PHP скриптов от воровства и SEO панель для мониторинга наших сайтов и выбора верной стратегии их развития. Мы надеемся что то что мы создали пригодится Вам и возможно Вы поможете нам развиваться и совершенствоваться вместе с Вами.

Статистика форума

Темы
404.615
Сообщения
461.552
Пользователи
80.401
Новый пользователь
vakerhiz

Приложения форума для iOS и Android


У ркн там нет власти ;)
Приватные разговоры
Помощь Пользователи
    Вы не присоединились ни к одной комнате.