За последнюю неделю опубликовано 47 новых материалов.
Инструкция новичку Путеводитель по форуму Прокси для Telegram Показать подсказки , это бомба!

Скачать Вирус / Fukkatsu no hi (1980) BDRip-AVC от ExKinoRay | L1 бесплатно через торрент

  • Поучаствуй (в качестве покупателя) в любых пяти совместных покупках (кроме завершённых и "Моментальных") и получи группу "Новичок" навсегда -> ссылка на раздел
  • Получай до 480 рублей за каждого приглашенного пользователя!
    представляем Вам очередное расширение партнерской программы, подробности описаны тут -> ссылка
  • 90% материалов доступно к скачиванию после простой регистрации!
    Если же ты хочешь скачивать материалы без требования оставлять отзывы то получи группу "Новичок", 10 способов повышения описаны тут -> ссылка
  • К сожалению количество битых ссылок растет и мы уже не можем их оперативно восстанавливать поэтому просим помощи у каждого нашего пользователя.
    С сегодняшнего дня, за каждую восстановленную ссылку мы заплатим Вам.
    Подробнее тут -> ссылка
  • Перенесем твои заслуги с другого ресурса!
    Мы понимаем как сложно прокачивать аккаунты на форумах, вроде раскачал аккаунт, а тут появляется ресурс в 100 раз круче но тоже с системой прокачки и снова качать аккаунт...
    Предлагаем вам перенести Ваши заслуги на другом подобном ресурсе к нам.
    Подробности описаны тут -> ссылка
  • Вы можете получать по 2.5% с каждой покупки и продажи на маркете! Подробности в теме Партнёрская программа
Если Вы не хотите скачивать, Вы всегда можетепосмотретьонлайн, просто нажмите кнопку ниже :

Открыть плеер

Torrent_Bot

Торрент-Бот
Бот форума
4 Окт 2016
93
160
20




Название: Вирус
Оригинальное название: Fukkatsu no hi
Год выхода: 1980
Жанр: драма, приключения, ужасы
Режиссер: Киндзи Фукасаку
В ролях: Масао Кусакари, Бо Свенсон, Оливия Хасси, Цунехико Ватасе, Джордж Кеннеди, Стефани Фолкнер, Гленн Форд, Роберт Вон, Чак Коннорс, Эдвард Джеймс Олмос, Стюард Гиллард, Крис Виггинс, Сес Линдер, Генри Сильва


Описание: Противостояние двух ядерных сверхдержав приводит к тому, что смертельный вирус оказывается на свободе и начинает распространятся по планете с дикой скоростью, убивая все живое на своем пути. Вирус гибнет при низких температурах, и 863 выживших вынуждены переселиться в Антарктиду.

В этом большом многонациональном и мультиконфессиональном сообществе постоянно возникают конфликты. Одни обвиняют других во всех своих бедах. Но вовремя понимают, что все их обиды и склоки ничто, перед лицом новой опасности, исходящей с американского континента. Когда ядерная угроза их существованию становится вполне реальной, правительство Антарктической Республики поручает экипажу атомной подводной лодки достичь берегов США и предотвратить запуск ракет.




Страна: Япония
Продолжительность: 02:36:18
Перевод: любительский (одноголосый закадровы) belzanin

Формат: MKV
Качество: BDRip-AVC
Видео: MPEG-4 AVC, 1024x554 (1.85:1), 23.976 fps, 3850 Kbps, 0.283 bit/pixel
Аудио #01: 48 kHz, AC3, 2.0, 192 Kbps | VO | RUS |
Аудио #02: 48 kHz, AC3, 5.1, 448 Kbps | ENG |
Субтитры: Русские (4u2ges)


ОтчетМедиаИнфо
x264 [info]: frame I:1258 Avg QP:17.07 size: 93319
x264 [info]: frame P:42178 Avg QP:20.65 size: 37167
x264 [info]: frame B:181411 Avg QP:22.96 size: 15593
x264 [info]: consecutive B-frames: 1.3% 1.8% 5.0% 11.1% 12.1% 46.5% 7.7% 2.6% 3.4% 1.9% 2.2% 2.3% 1.2% 0.6% 0.4%
----------------------------------------------------------------------
General
Unique ID : 210328051944970034071633232182642716941 (0x9E3BB59735FD562D8A635401F2BFB10D)
Complete name : F:Вирус.1980.BDRip.AVC.ExKinoRay.mkv
Format : Matroska
Format version : Version 2
File size : 4.90 GiB
Duration : 2 h 36 min
Overall bit rate : 4 493 kb/s
Movie name : Вирус 1980 from ExKinoRay
Encoded date : UTC 2020-07-03 00:13:10
Writing application : mkvmerge v5.6.0 ('Kenya Kane') built on May 27 2012 16:44:04
Writing library : libebml v1.2.3 + libmatroska v1.3.0

Video
ID : 1
Format : AVC
Format/Info : Advanced Video Codec
Format profile : [email protected]
Format settings, CABAC : Yes
Format settings, ReFrames : 12 frames
Codec ID : V_MPEG4/ISO/AVC
Duration : 2 h 36 min
Bit rate : 3 850 kb/s
Width : 1 024 pixels
Height : 554 pixels
Display aspect ratio : 1.85:1
Frame rate mode : Constant
Frame rate : 23.976 (23976/1000) FPS
Color space : YUV
Chroma subsampling : 4:2:0
Bit depth : 8 bits
Scan type : Progressive
Bits/(Pixel*Frame) : 0.283
Stream size : 4.11 GiB (84%)
Title : Enigma
Writing library : x264 core 152 r2851 ba24899
Encoding settings : cabac=1 / ref=12 / deblock=1:-2:-2 / analyse=0x3:0x113 / me=umh / subme=10 / psy=1 / psy_rd=0.95:0.10 / mixed_ref=1 / me_range=32 / chroma_me=1 / trellis=2 / 8x8dct=1 / cqm=0 / deadzone=21,11 / fast_pskip=0 / chroma_qp_offset=-3 / threads=12 / lookahead_threads=3 / sliced_threads=0 / nr=0 / decimate=0 / interlaced=0 / bluray_compat=0 / constrained_intra=0 / bframes=14 / b_pyramid=2 / b_adapt=2 / b_bias=0 / direct=3 / weightb=1 / open_gop=0 / weightp=2 / keyint=240 / keyint_min=23 / scenecut=40 / intra_refresh=0 / rc=2pass / mbtree=0 / bitrate=3850 / ratetol=1.0 / qcomp=0.60 / qpmin=0 / qpmax=51 / qpstep=4 / cplxblur=20.0 / qblur=0.5 / ip_ratio=1.40 / pb_ratio=1.30 / aq=3:0.80
Language : English
Default : Yes
Forced : No
Color range : Limited
Color primaries : BT.709
Transfer characteristics : BT.709
Matrix coefficients : BT.709

Audio #1
ID : 2
Format : AC-3
Format/Info : Audio Coding 3
Mode extension : CM (complete main)
Format settings, Endianness : Big
Codec ID : A_AC3
Duration : 2 h 36 min
Bit rate mode : Constant
Bit rate : 192 kb/s
Channel(s) : 2 channels
Channel positions : Front: L R
Sampling rate : 48.0 kHz
Frame rate : 31.250 FPS (1536 spf)
Compression mode : Lossy
Stream size : 215 MiB (4%)
Title : VO (belzanin)
Language : Russian
Default : Yes
Forced : No

Audio #2
ID : 3
Format : AC-3
Format/Info : Audio Coding 3
Mode extension : CM (complete main)
Format settings, Endianness : Big
Codec ID : A_AC3
Duration : 2 h 36 min
Bit rate mode : Constant
Bit rate : 448 kb/s
Channel(s) : 6 channels
Channel positions : Front: L C R, Side: L R, LFE
Sampling rate : 48.0 kHz
Frame rate : 31.250 FPS (1536 spf)
Compression mode : Lossy
Stream size : 501 MiB (10%)
Language : English
Default : No
Forced : No

Text
ID : 4
Format : UTF-8
Codec ID : S_TEXT/UTF8
Codec ID/Info : UTF-8 Plain Text
Language : Russian
Default : No
Forced : No

Menu
00:00:00.000 : en:Chapter 1
00:05:56.898 : en:Chapter 2
00:10:31.589 : en:Chapter 3
00:17:03.689 : en:Chapter 4
00:24:49.237 : en:Chapter 5
00:33:13.116 : en:Chapter 6
00:38:32.685 : en:Chapter 7
00:45:37.776 : en:Chapter 8
00:51:46.144 : en:Chapter 9
01:01:05.745 : en:Chapter 10
01:05:15.953 : en:Chapter 11
01:11:41.213 : en:Chapter 12
01:18:36.920 : en:Chapter 13
01:27:56.271 : en:Chapter 14
01:34:25.034 : en:Chapter 15
01:40:30.524 : en:Chapter 16
01:46:27.381 : en:Chapter 17
01:52:29.617 : en:Chapter 18
01:58:29.811 : en:Chapter 19
02:06:16.610 : en:Chapter 20
02:11:41.602 : en:Chapter 21
02:20:01.059 : en:Chapter 22
02:24:53.434 : en:Chapter 23
02:36:16.992 : en:Chapter 24




Релиз от:

Автор релиза:
 

Вложения

  • 25,5 KB Просмотры: 0
    Личеров 0
    Сидеров 0
    Файлов 1
    Объем 4,9 GB

Привет!

Мы группа людей которые решили помочь другим в решении их проблем, а так же пользователям с поиском самых свежих и качественных инфопродуктов. За 4 с небольшим месяца мы создали этот форум на который заходят ежедневно тысячи человек и посещаемость постоянно растёт. Мы создали панель лицензирования для защиты PHP скриптов от воровства и SEO панель для мониторинга наших сайтов и выбора верной стратегии их развития. Мы надеемся что то что мы создали пригодится Вам и возможно Вы поможете нам развиваться и совершенствоваться вместе с Вами.

Статистика форума

Темы
406.639
Сообщения
465.111
Пользователи
84.583
Новый пользователь
кцукецукцукцу

Приложения форума для iOS и Android


У ркн там нет власти ;)
Приватные разговоры
Помощь Пользователи
    Вы не присоединились ни к одной комнате.