За последнюю неделю опубликовано 0 новых материалов.
Инструкция новичку Путеводитель по форуму Прокси для Telegram Показать подсказки , это бомба!

Скачать Викинг (2016) BDRip 720p от k.e.n & MegaPeer | Rus Transfer | Расширенная версия | Лицензия бесплатно через торрент

  • Поучаствуй (в качестве покупателя) в любых пяти совместных покупках (кроме завершённых и "Моментальных") и получи группу "Новичок" навсегда -> ссылка на раздел
  • Получай до 480 рублей за каждого приглашенного пользователя!
    представляем Вам очередное расширение партнерской программы, подробности описаны тут -> ссылка
  • 90% материалов доступно к скачиванию после простой регистрации!
    Если же ты хочешь скачивать материалы без требования оставлять отзывы то получи группу "Новичок", 10 способов повышения описаны тут -> ссылка
  • К сожалению количество битых ссылок растет и мы уже не можем их оперативно восстанавливать поэтому просим помощи у каждого нашего пользователя.
    С сегодняшнего дня, за каждую восстановленную ссылку мы заплатим Вам.
    Подробнее тут -> ссылка
  • Перенесем твои заслуги с другого ресурса!
    Мы понимаем как сложно прокачивать аккаунты на форумах, вроде раскачал аккаунт, а тут появляется ресурс в 100 раз круче но тоже с системой прокачки и снова качать аккаунт...
    Предлагаем вам перенести Ваши заслуги на другом подобном ресурсе к нам.
    Подробности описаны тут -> ссылка
  • Вы можете получать по 2.5% с каждой покупки и продажи на маркете! Подробности в теме Партнёрская программа
Если Вы не хотите скачивать, Вы всегда можетепосмотретьонлайн, просто нажмите кнопку ниже :

Открыть плеер

Torrent_Bot

Торрент-Бот
Бот форума
4 Окт 2016
79
196
20

Информация о фильме
Название: Викинг
Год выхода: 2016
Жанр: Драма, история
Выпущено: Россия, Дирекция Кино
Режиссер: Андрей Кравчук
В ролях: Данила Козловский, Светлана Ходченкова, Максим Суханов, Игорь Петренко, Андрей Смоляков, Владимир Епифанцев, Александра Бортич, Кирилл Плетнёв, Александр Устюгов, Ростислав Бершауэр


О фильме:
Раннее Средневековье. Время тяжелых мечей и темных законов крови. Правящий род в раздоре. Вина за случайную смерть брата легла на Великого Князя. По закону мстить ему должен младший брат — бастард. За отказ убивать он заплатит всем, что у него было, потому что «для мира нужно больше мечей, чем для войны»…



Файл
Качество: BDRip (720p)
Видео: AVC, 1280x536 (2.40:1), 24 fps, 5159 Kbps (0.313 bit/pixel)
Аудио: AC3, 6 ch, 640 Kbps
Продолжительность: 02:22:07
Язык: Русский

Озвучивание - (Лицензия)
Сохранены оригинальные чаптеры как на Blu-Ray.

Релиз: &

x264
x264 [info]: frame I:1508 Avg QP:16.43 size:111005 PSNR Mean Y:46.64 U:51.23 V:50.13 Avg:47.45 Global:46.40
x264 [info]: frame P:54244 Avg QP:19.20 size: 45544 PSNR Mean Y:44.51 U:50.77 V:49.27 Avg:45.44 Global:44.19
x264 [info]: frame B:148898 Avg QP:21.34 size: 19092 PSNR Mean Y:43.34 U:50.32 V:48.58 Avg:44.35 Global:43.01
MediaInfo:
Формат : Matroska
Версия формата : Version 2
Размер файла : 5,74 Гбайт
Продолжительность : 2 ч. 22 м.
Общий поток : 5784 Кбит/сек
Дата кодирования : UTC 2017-05-15 18:14:25
Программа кодирования : mkvmerge v5.3.0 ('I could have danced') built on Feb 9 2012 10:38:07
Библиотека кодирования : libebml v1.2.3 + libmatroska v1.3.0
Attachments : poster (3).jpg

Видео
Идентификатор : 1
Формат : AVC
Формат/Информация : Advanced Video Codec
Профиль формата : [email protected]
Параметр CABAC формата : Да
Параметр ReFrames формата : 12 кадров
Идентификатор кодека : V_MPEG4/ISO/AVC
Продолжительность : 2 ч. 22 м.
Битрейт : 5159 Кбит/сек
Ширина : 1280 пикселей
Высота : 536 пикселей
Соотношение сторон : 2,40:1
Режим частоты кадров : Постоянный
Частота кадров : 24,000 кадра/сек
Цветовое пространство : YUV
Субдискретизация насыщенности : 4:2:0
Битовая глубина : 8 бит
Тип развёртки : Прогрессивная
Бит/(Пиксели*Кадры) : 0.313
Размер потока : 4,99 Гбайт (87%)
Библиотека кодирования : x264 core 146 r2538 121396c
Настройки программы : cabac=1 / ref=12 / deblock=1:-3:-3 / analyse=0x3:0x133 / me=umh / subme=11 / psy=1 / psy_rd=1.00:0.00 / mixed_ref=1 / me_range=32 / chroma_me=1 / trellis=2 / 8x8dct=1 / cqm=0 / deadzone=21,11 / fast_pskip=0 / chroma_qp_offset=-2 / threads=12 / lookahead_threads=3 / sliced_threads=0 / nr=0 / decimate=1 / interlaced=0 / bluray_compat=0 / constrained_intra=0 / bframes=11 / b_pyramid=2 / b_adapt=2 / b_bias=0 / direct=3 / weightb=1 / open_gop=0 / weightp=2 / keyint=240 / keyint_min=24 / scenecut=40 / intra_refresh=0 / rc=2pass / mbtree=0 / bitrate=5159 / ratetol=1.0 / qcomp=0.60 / qpmin=0 / qpmax=69 / qpstep=4 / cplxblur=20.0 / qblur=0.5 / ip_ratio=1.40 / pb_ratio=1.30 / aq=1:0.90
Язык : English
Default : Да
Forced : Нет

Аудио
Идентификатор : 2
Формат : AC-3
Формат/Информация : Audio Coding 3
Расширение режима : CM (complete main)
Параметр Endianness формата : Big
Идентификатор кодека : A_AC3
Продолжительность : 2 ч. 22 м.
Вид битрейта : Постоянный
Битрейт : 640 Кбит/сек
Каналы : 6 каналов
Расположение каналов : Front: L C R, Side: L R, LFE
Частота : 48,0 КГц
Частота кадров : 31,250 кадров/сек (1536 spf)
Битовая глубина : 16 бит
Метод сжатия : С потерями
Размер потока : 651 Мбайт (11%)
Default : Да
Forced : Нет

Меню
00:00:00.000 : :Chapter 01
00:01:24.791 : :Chapter 02
00:12:35.458 : :Chapter 03
00:27:32.375 : :Chapter 04
00:43:47.000 : :Chapter 05
01:01:19.000 : :Chapter 06
01:21:34.125 : :Chapter 07
01:41:53.416 : :Chapter 08
01:57:32.750 : :Chapter 09

Скриншоты:
 

Вложения

  • 15,4 KB Просмотры: 1
    Личеров 0
    Сидеров 0
    Файлов 1
    Объем 5,7 GB

Привет!

Мы группа людей которые решили помочь другим в решении их проблем, а так же пользователям с поиском самых свежих и качественных инфопродуктов. За 4 с небольшим месяца мы создали этот форум на который заходят ежедневно тысячи человек и посещаемость постоянно растёт. Мы создали панель лицензирования для защиты PHP скриптов от воровства и SEO панель для мониторинга наших сайтов и выбора верной стратегии их развития. Мы надеемся что то что мы создали пригодится Вам и возможно Вы поможете нам развиваться и совершенствоваться вместе с Вами.

Статистика форума

Темы
414.370
Сообщения
475.396
Пользователи
96.561
Новый пользователь
starushka

Приложения форума для iOS и Android


У ркн там нет власти ;)
Приватные разговоры
Помощь Пользователи
    Вы не присоединились ни к одной комнате.