За последнюю неделю опубликовано 51 новых материалов.
Инструкция новичку Путеводитель по форуму Прокси для Telegram Показать подсказки , это бомба!

Скачать Весна в Москве (1953) DVDRip-AVC от New-Team бесплатно через торрент

  • Поучаствуй (в качестве покупателя) в любых пяти совместных покупках (кроме завершённых и "Моментальных") и получи группу "Новичок" навсегда -> ссылка на раздел
  • Получай до 480 рублей за каждого приглашенного пользователя!
    представляем Вам очередное расширение партнерской программы, подробности описаны тут -> ссылка
  • 90% материалов доступно к скачиванию после простой регистрации!
    Если же ты хочешь скачивать материалы без требования оставлять отзывы то получи группу "Новичок", 10 способов повышения описаны тут -> ссылка
  • К сожалению количество битых ссылок растет и мы уже не можем их оперативно восстанавливать поэтому просим помощи у каждого нашего пользователя.
    С сегодняшнего дня, за каждую восстановленную ссылку мы заплатим Вам.
    Подробнее тут -> ссылка
  • Перенесем твои заслуги с другого ресурса!
    Мы понимаем как сложно прокачивать аккаунты на форумах, вроде раскачал аккаунт, а тут появляется ресурс в 100 раз круче но тоже с системой прокачки и снова качать аккаунт...
    Предлагаем вам перенести Ваши заслуги на другом подобном ресурсе к нам.
    Подробности описаны тут -> ссылка
  • Вы можете получать по 2.5% с каждой покупки и продажи на маркете! Подробности в теме Партнёрская программа
Если Вы не хотите скачивать, Вы всегда можетепосмотретьонлайн, просто нажмите кнопку ниже :

Открыть плеер

Torrent_Bot

Торрент-Бот
Бот форума
4 Окт 2016
91
164
20
Страна: СССР
Производство: Ленфильм

Жанр: драма
Год выпуска: 1953
Продолжительность: 01:24:24

Перевод: Не требуется
Cубтитры: нет
Оригинальная аудиодорожка: русский

Режиссер: Иосиф Хейфиц, Надежда Кошеверова

В ролях:
Галина Короткевич, Владимир Петров, Юрий Бубликов, Анатолий Кузнецов (II), Владимир Таскин, Георгий Анчиц, Лев Шостак, Людмила Пономарёва, Анатолий Абрамов, Александра Тришко, Николай Лукинов, Сабина Суйковская...
Полный список актёров

Описание:
Фильм-спектакль по одноименной пьесе Виктора Гусева.
Постановка Ленинградского Нового театра. Режиссер и художник спектакля - Николай Акимов. Действие пьесы, написанной в 1941 году, перенесено в начало пятидесятых годов.
Молодой историк Надежда Коврова, блистательно завершив первую работу, отвернувшись от друзей, сразу же пишет следующую. Ее постигает неудача. Тяжело пережив свое поражение, героиня находит поддержку у коллектива.





Источник: DVD9 R5
Качество видео: DVDRip-AVC
Формат видео: MKV

Видео: 656->720x540 (4:3), 25 fps, H264 ~ 1316 kbps avg, 0.149 bit/pixel
Аудио: 48 kHz, Dolby Digital AC3 2.0, 192 kbps

Раздача от:
MediaInfo
Общее
Полное имя : Vesna.v.Moskve.1953.DVDRip-AVC_[New-team]_by_AVP_Studio.mkv
Формат : Matroska
Версия формата : Version 4 / Version 2
Размер файла : 1,08 Гбайт
Продолжительность : 1 ч. 42 м.
Общий поток : 1510 Кбит/сек
Дата кодирования : UTC 2016-03-16 07:43:47
Программа кодирования : mkvmerge v8.9.0 ('Father Daughter') 64bit
Библиотека кодирования : libebml v1.3.3 + libmatroska v1.4.4

Видео
Идентификатор : 1
Формат : AVC
Формат/Информация : Advanced Video Codec
Профиль формата : [email protected]
Параметр CABAC формата : Да
Параметр ReFrames формата : 10 кадров
Идентификатор кодека : V_MPEG4/ISO/AVC
Продолжительность : 1 ч. 42 м.
Битрейт : 1316 Кбит/сек
Ширина : 656 пикселей
Высота : 540 пикселей
Соотношение сторон : 4:3
Режим частоты кадров : Постоянный
Частота кадров : 25,000 кадров/сек
Цветовое пространство : YUV
Субдискретизация насыщенности : 4:2:0
Битовая глубина : 8 бит
Тип развёртки : Прогрессивная
Бит/(Пиксели*Кадры) : 0.149
Размер потока : 964 Мбайт (87%)
Default : Да
Forced : Нет

Аудио
Идентификатор : 2
Формат : AC-3
Формат/Информация : Audio Coding 3
Расширение режима : CM (complete main)
Параметр Endianness формата : Big
Идентификатор кодека : A_AC3
Продолжительность : 1 ч. 42 м.
Вид битрейта : Постоянный
Битрейт : 192 Кбит/сек
Каналы : 2 канала
Расположение каналов : Front: L R
Частота : 48,0 КГц
Частота кадров : 31,250 кадров/сек (1536 spf)
Метод сжатия : С потерями
Задержка видео : 8 мс.
Размер потока : 141 Мбайт (13%)
Default : Да
Forced : Нет
Скриншоты
 

Вложения

  • 12,2 KB Просмотры: 1
    Личеров 0
    Сидеров 0
    Файлов 1
    Объем 1,1 GB

Привет!

Мы группа людей которые решили помочь другим в решении их проблем, а так же пользователям с поиском самых свежих и качественных инфопродуктов. За 4 с небольшим месяца мы создали этот форум на который заходят ежедневно тысячи человек и посещаемость постоянно растёт. Мы создали панель лицензирования для защиты PHP скриптов от воровства и SEO панель для мониторинга наших сайтов и выбора верной стратегии их развития. Мы надеемся что то что мы создали пригодится Вам и возможно Вы поможете нам развиваться и совершенствоваться вместе с Вами.

Статистика форума

Темы
410.572
Сообщения
469.128
Пользователи
86.229
Новый пользователь
bie

Приложения форума для iOS и Android


У ркн там нет власти ;)
Приватные разговоры
Помощь Пользователи
    Вы не присоединились ни к одной комнате.