За последнюю неделю опубликовано 38 новых материалов.
Инструкция новичку Путеводитель по форуму Прокси для Telegram Показать подсказки , это бомба!

Скачать Весна на Заречной улице (1956) BDRip 720p от KORSAR | Цветная версия бесплатно через торрент

  • Поучаствуй (в качестве покупателя) в любых пяти совместных покупках (кроме завершённых и "Моментальных") и получи группу "Новичок" навсегда -> ссылка на раздел
  • Получай до 480 рублей за каждого приглашенного пользователя!
    представляем Вам очередное расширение партнерской программы, подробности описаны тут -> ссылка
  • 90% материалов доступно к скачиванию после простой регистрации!
    Если же ты хочешь скачивать материалы без требования оставлять отзывы то получи группу "Новичок", 10 способов повышения описаны тут -> ссылка
  • К сожалению количество битых ссылок растет и мы уже не можем их оперативно восстанавливать поэтому просим помощи у каждого нашего пользователя.
    С сегодняшнего дня, за каждую восстановленную ссылку мы заплатим Вам.
    Подробнее тут -> ссылка
  • Перенесем твои заслуги с другого ресурса!
    Мы понимаем как сложно прокачивать аккаунты на форумах, вроде раскачал аккаунт, а тут появляется ресурс в 100 раз круче но тоже с системой прокачки и снова качать аккаунт...
    Предлагаем вам перенести Ваши заслуги на другом подобном ресурсе к нам.
    Подробности описаны тут -> ссылка
  • Вы можете получать по 2.5% с каждой покупки и продажи на маркете! Подробности в теме Партнёрская программа
Если Вы не хотите скачивать, Вы всегда можетепосмотретьонлайн, просто нажмите кнопку ниже :

Открыть плеер

Torrent_Bot

Торрент-Бот
Бот форума
4 Окт 2016
93
155
20
Информация о фильме
Название: Весна на Заречной улице
Год выпуска: 1956
Жанр:Мелодрама
Режиссёр: Марлен Хуциев, Феликс Миронер
В ролях: Нина Иванова, Николай Рыбников, Владимир Гуляев, Валентина Пугачёва, Геннадий Юхтин, Римма Шорохова, Николай Ключнев, Марина Гаврилко, Юрий Белов, Валентин Брылеев, Виктор Маркин, Евгений Коваленко, Александр Мороз, Люся Максимова, Жан Мельников

Описание: История любви юной учительницы школы рабочей молодежи и ее ученика — одна из самых популярных отечественных мелодрам. Герой фильма, парень лихой и самоуверенный, лучший сталевар завода, не привык к отказам женщин. И вдруг его домогательства получают отпор! Поначалу он пытается играть в безразличие. Но проходит время — и он вдруг понимает, что к нему впервые пришло настоящее, глубокое чувство.



Выпущено: СССР, Одесская киностудия
Продолжительность: 01:34:00
Перевод: Не требуется

Файл
Качество: BDRip 720p
Видео: MPEG-4 AVC, 1280x720, 12.4 Mбит/с, 23.976 fps
Аудио 1: AC3, 6 ch, 448 Кбит/с
Аудио 2: AC3, 1 ch, 224 Кбит/с
Субтитры: Нет
Навигация по главам: Есть

Релиз от:

Скриншоты

MediaInfo
x264 [info]: frame I:688 Avg QP:18.00 size:189036
x264 [info]: frame P:29075 Avg QP:19.19 size:122607
x264 [info]: frame B:105471 Avg QP:21.41 size: 49446
x264 [info]: consecutive B-frames: 0.8% 1.2% 7.4% 27.0% 27.9% 31.1% 3.7% 0.6% 0.2% 0.1%

========================================================================

Общее
Уникальный идентификатор : 227573638802928500673678184117334106985 (0xAB3516AB5E47DD6AA82974325C66E369)
Полное имя : Весна на Заречной улице.1956.BDRip.720p.KORSAR.mkv
Формат : Matroska
Версия формата : Version 2
Размер файла : 8,74 Гбайт
Продолжительность : 1 ч. 34 м.
Общий поток : 13,3 Мбит/сек
Название фильма : Весна на Заречной улице.1956.BDRip.720p.KORSAR
Дата кодирования : UTC 2018-09-05 23:41:17
Программа кодирования : mkvmerge v5.8.0 ('No Sleep / Pillow') built on Sep 2 2012 15:37:04
Библиотека кодирования : libebml v1.2.3 + libmatroska v1.3.0

Видео
Идентификатор : 1
Формат : AVC
Формат/Информация : Advanced Video Codec
Профиль формата : High@L4.1
Параметр CABAC формата : Да
Параметр RefFrames формата : 9 кадров
Идентификатор кодека : V_MPEG4/ISO/AVC
Продолжительность : 1 ч. 34 м.
Битрейт : 12,4 Мбит/сек
Ширина : 1280 пикселей
Высота : 720 пикселей
Соотношение сторон : 16:9
Режим частоты кадров : Постоянный
Частота кадров : 23,976 (24000/1001) кадра/сек
Цветовое пространство : YUV
Субдискретизация насыщенности : 4:2:0
Битовая глубина : 8 бит
Тип развёртки : Прогрессивная
Бит/(Пиксели*Кадры) : 0.560
Размер потока : 8,13 Гбайт (93%)
Библиотека кодирования : x264 core 152 r2851kMod ba24899
Настройки программы : cabac=1 / ref=9 / deblock=1:-3:-2 / analyse=0x3:0x113 / me=umh / subme=10 / psy=1 / fade_compensate=0.00 / psy_rd=1.05:0.12 / mixed_ref=1 / me_range=48 / chroma_me=1 / trellis=2 / 8x8dct=1 / cqm=0 / deadzone=21,11 / fast_pskip=1 / chroma_qp_offset=-3 / threads=12 / lookahead_threads=2 / sliced_threads=0 / nr=0 / decimate=1 / interlaced=0 / bluray_compat=0 / constrained_intra=0 / bframes=9 / b_pyramid=2 / b_adapt=2 / b_bias=0 / direct=1 / weightb=1 / open_gop=0 / weightp=2 / keyint=240 / keyint_min=23 / scenecut=40 / intra_refresh=0 / rc=crf / mbtree=0 / crf=17.5000 / qcomp=0.63 / qpmin=0 / qpmax=39 / qpstep=4 / ip_ratio=1.40 / pb_ratio=1.30 / aq=3:0.90
Язык : English
Default : Да
Forced : Нет
Цветовой диапазон : Limited
Основные цвета : BT.709
Характеристики трансфера : BT.709
Коэффициенты матрицы : BT.709

Аудио #1
Идентификатор : 2
Формат : AC-3
Формат/Информация : Audio Coding 3
Параметр Endianness формата : Big
Идентификатор кодека : A_AC3
Продолжительность : 1 ч. 34 м.
Вид битрейта : Постоянный
Битрейт : 448 Кбит/сек
Каналы : 6 каналов
Расположение каналов : Front: L C R, Side: L R, LFE
Частота : 48,0 КГц
Частота кадров : 31,250 кадров/сек (1536 SPF)
Битовая глубина : 16 бит
Метод сжатия : С потерями
Размер потока : 301 Мбайт (3%)
Язык : Russian
Default : Да
Forced : Нет

Аудио #2
Идентификатор : 3
Формат : AC-3
Формат/Информация : Audio Coding 3
Параметр Endianness формата : Big
Идентификатор кодека : A_AC3
Продолжительность : 1 ч. 34 м.
Вид битрейта : Постоянный
Битрейт : 224 Кбит/сек
Каналы : 1 канал
Расположение каналов : Front: C
Частота : 48,0 КГц
Частота кадров : 31,250 кадров/сек (1536 SPF)
Битовая глубина : 16 бит
Метод сжатия : С потерями
Размер потока : 151 Мбайт (2%)
Язык : Russian
Default : Нет
Forced : Нет

Меню
00:00:00.000 : en:
00:09:01.123 : en:
00:16:21.313 : en:
00:24:45.025 : en:
00:30:19.359 : en:
00:34:48.252 : en:
00:41:05.588 : en:
00:44:11.357 : en:
00:51:23.580 : en:
00:53:54.564 : en:
01:01:49.747 : en:
01:08:26.310 : en:
01:13:59.143 : en:
01:20:51.346 : en:
01:28:07.240 : en:
 

Вложения

  • 44,7 KB Просмотры: 0
    Личеров 0
    Сидеров 0
    Файлов 1
    Объем 8,7 GB

Привет!

Мы группа людей которые решили помочь другим в решении их проблем, а так же пользователям с поиском самых свежих и качественных инфопродуктов. За 4 с небольшим месяца мы создали этот форум на который заходят ежедневно тысячи человек и посещаемость постоянно растёт. Мы создали панель лицензирования для защиты PHP скриптов от воровства и SEO панель для мониторинга наших сайтов и выбора верной стратегии их развития. Мы надеемся что то что мы создали пригодится Вам и возможно Вы поможете нам развиваться и совершенствоваться вместе с Вами.

Статистика форума

Темы
406.529
Сообщения
464.588
Пользователи
83.075
Новый пользователь
matataspribobahom

Приложения форума для iOS и Android


У ркн там нет власти ;)
Приватные разговоры
Помощь Пользователи
    Вы не присоединились ни к одной комнате.