За последнюю неделю опубликовано 56 новых материалов.
Инструкция новичку Путеводитель по форуму Прокси для Telegram Показать подсказки , это бомба!

Скачать Верхушка айсберга / La punta del iceberg (2016) HDRip 720p | GreenРай Studio бесплатно через торрент

  • Поучаствуй (в качестве покупателя) в любых пяти совместных покупках (кроме завершённых и "Моментальных") и получи группу "Новичок" навсегда -> ссылка на раздел
  • Получай до 480 рублей за каждого приглашенного пользователя!
    представляем Вам очередное расширение партнерской программы, подробности описаны тут -> ссылка
  • 90% материалов доступно к скачиванию после простой регистрации!
    Если же ты хочешь скачивать материалы без требования оставлять отзывы то получи группу "Новичок", 10 способов повышения описаны тут -> ссылка
  • К сожалению количество битых ссылок растет и мы уже не можем их оперативно восстанавливать поэтому просим помощи у каждого нашего пользователя.
    С сегодняшнего дня, за каждую восстановленную ссылку мы заплатим Вам.
    Подробнее тут -> ссылка
  • Перенесем твои заслуги с другого ресурса!
    Мы понимаем как сложно прокачивать аккаунты на форумах, вроде раскачал аккаунт, а тут появляется ресурс в 100 раз круче но тоже с системой прокачки и снова качать аккаунт...
    Предлагаем вам перенести Ваши заслуги на другом подобном ресурсе к нам.
    Подробности описаны тут -> ссылка
  • Вы можете получать по 2.5% с каждой покупки и продажи на маркете! Подробности в теме Партнёрская программа
Если Вы не хотите скачивать, Вы всегда можетепосмотретьонлайн, просто нажмите кнопку ниже :

Открыть плеер

Torrent_Bot

Торрент-Бот
Бот форума
4 Окт 2016
92
163
20
Название: Верхушка айсберга
Оригинальное название: La punta del iceberg
Год выпуска: 2016
Жанр:Триллер, детектив
Режиссер: Дэвид Кановас
В ролях: Марибель Верду, Фернандо Кайо, Кармело Гомес, Алекс Гарсия, Хинес Гарсия Мильян, Хуан Фернандес, Барбара Гоэнага, Хесус Кастехьон

О фильме:
В крупной компании происходят одно за другим три самоубийства сотрудников. Руководство поручает Софии Куэвас провести внутреннее расследование и выяснить причины произошедшего.

eddec35664b5dfd8fb973b4f8b6577da.gif
Страна: Испания
Студия: (ICAA), Perenquen Films, Tornasol Films
Продолжительность: 01:35:42
Перевод: Любительский многоголосый [GreenРай Studio]

Файл
Кодек: x.264 (AVC)
Качество: HDRip 720p
Видео: 4000 Кбит/с, 1280x536, 24.000 fps
Звук: Русский (AC3, 2 ch, 384 Кбит/с)


Скриншоты
8864ac217d60f59fd566c8811c25e14d.jpg4e59c9f97001ffbf9c44ac5d72d51b5b.jpg1139fba59e9aef39785d0b353297d8c8.jpgbb2016f58fcb6417330aa9d0a4d923d1.jpg
MediaInfo
General
Unique ID : 196542277038836461842336818172918224253 (0x93DCAA6943CF9C5ABA05AD7DE7B7D57D)
Complete name : E:GreenRayLa.punta.del.iceberg.2016.P.BDRip.720p.mkv
Format : Matroska
Format version : Version 4 / Version 2
File size : 2.88 GiB
Duration : 1 h 36 min
Overall bit rate mode : Constant
Overall bit rate : 4 280 kb/s
Movie name : La punta del iceberg 2016 1080p BluRay DD5.1 x264-CREATiVE
Encoded date : UTC 2018-03-01 11:27:28
Writing application : mkvmerge v8.3.0 ('Over the Horizon') 64bit
Writing library : libebml v1.3.1 + libmatroska v1.4.2

Video
ID : 1
Format : AVC
Format/Info : Advanced Video Codec
Format profile : [email protected]
Format settings : CABAC / 3 Ref Frames
Format settings, CABAC : Yes
Format settings, ReFrames : 3 frames
Format settings, GOP : M=4, N=15
Codec ID : V_MPEG4/ISO/AVC
Duration : 1 h 36 min
Bit rate mode : Constant
Bit rate : 4 000 kb/s
Width : 1 280 pixels
Height : 536 pixels
Display aspect ratio : 2.40:1
Frame rate mode : Constant
Frame rate : 24.000 FPS
Standard : NTSC
Color space : YUV
Chroma subsampling : 4:2:0
Bit depth : 8 bits
Scan type : Progressive
Bits/(Pixel*Frame) : 0.243
Stream size : 2.62 GiB (91%)
Language : English
Default : Yes
Forced : No
Color range : Limited

Audio
ID : 2
Format : AC-3
Format/Info : Audio Coding 3
Codec ID : A_AC3
Duration : 1 h 36 min
Bit rate mode : Constant
Bit rate : 384 kb/s
Channel(s) : 2 channels
Channel positions : Front: L R
Sampling rate : 48.0 kHz
Frame rate : 31.250 FPS (1536 SPF)
Bit depth : 16 bits
Compression mode : Lossy
Stream size : 264 MiB (9%)
Service kind : Complete Main
Default : Yes
Forced : No

Внимание, имеется видео и аудио реклама от спонсора показа

Над релизом работали:
Над релизом работали:
Состав дикторов Руслан Чериев, Мария Морошкина, Дмитрий Коляденко
Руководитель проекта и координатор: Евгений Овчаренко
Организатор и координатор: Никита Марков
Пиар менеджер студии: Гриша Чернозатонский
Техническая поддержка: Александр Методий

Релиз от:
 

Вложения

Привет!

Мы группа людей которые решили помочь другим в решении их проблем, а так же пользователям с поиском самых свежих и качественных инфопродуктов. За 4 с небольшим месяца мы создали этот форум на который заходят ежедневно тысячи человек и посещаемость постоянно растёт. Мы создали панель лицензирования для защиты PHP скриптов от воровства и SEO панель для мониторинга наших сайтов и выбора верной стратегии их развития. Мы надеемся что то что мы создали пригодится Вам и возможно Вы поможете нам развиваться и совершенствоваться вместе с Вами.

Статистика форума

Темы
406.697
Сообщения
465.158
Пользователи
84.770
Новый пользователь
fron83

Приложения форума для iOS и Android


У ркн там нет власти ;)
Приватные разговоры
Помощь Пользователи
    Вы не присоединились ни к одной комнате.