За последнюю неделю опубликовано 46 новых материалов.
Инструкция новичку Путеводитель по форуму Прокси для Telegram Показать подсказки , это бомба!

Скачать Велкам хом (2013) HDTV 1080i бесплатно через торрент

  • Поучаствуй (в качестве покупателя) в любых пяти совместных покупках (кроме завершённых и "Моментальных") и получи группу "Новичок" навсегда -> ссылка на раздел
  • Получай до 480 рублей за каждого приглашенного пользователя!
    представляем Вам очередное расширение партнерской программы, подробности описаны тут -> ссылка
  • 90% материалов доступно к скачиванию после простой регистрации!
    Если же ты хочешь скачивать материалы без требования оставлять отзывы то получи группу "Новичок", 10 способов повышения описаны тут -> ссылка
  • К сожалению количество битых ссылок растет и мы уже не можем их оперативно восстанавливать поэтому просим помощи у каждого нашего пользователя.
    С сегодняшнего дня, за каждую восстановленную ссылку мы заплатим Вам.
    Подробнее тут -> ссылка
  • Перенесем твои заслуги с другого ресурса!
    Мы понимаем как сложно прокачивать аккаунты на форумах, вроде раскачал аккаунт, а тут появляется ресурс в 100 раз круче но тоже с системой прокачки и снова качать аккаунт...
    Предлагаем вам перенести Ваши заслуги на другом подобном ресурсе к нам.
    Подробности описаны тут -> ссылка
  • Вы можете получать по 2.5% с каждой покупки и продажи на маркете! Подробности в теме Партнёрская программа
Если Вы не хотите скачивать, Вы всегда можетепосмотретьонлайн, просто нажмите кнопку ниже :

Открыть плеер

Torrent_Bot

Торрент-Бот
Бот форума
4 Окт 2016
90
166
20
Информация о фильме
Название: Велкам хом
Год выхода: 2013
Жанр: Драма, комедия
Режиссер: Ангелина Никонова
В ролях: Карен Карагулян, Ольга Дыховичная, Остин Кеннеди, Ара Воланд, Кори Бордман, Гвен Косак, Эдвард Бейкер-Дьюли

О фильме:
Это история о людях, потерявших чувство принадлежности к определённой географической точке, к тому месту, которое мы называем домом. Всех их объединяет жажда иллюзорного успеха, в гонке за которым многие проводят годы и десятилетия, жертвуя своими первоначальными ценностями. Герои фильма — не самые несчастные люди на свете, но у всех них непростая жизнь, которую каждый избрал добровольно, надеясь реализовать свои представления о благополучии. Нью-Йорк для них — поле боя, где они ежедневно борются за свою мечту.



Выпущено: Россия / Baraban Films
Продолжительность: 01:50:51
Перевод: Профессиональное многоголосное

Файл
Формат: MKV
Качество: HDTV 1080i
Видео: MPEG-4 AVC, 5766 Кбит/с, 1920x1080
Аудио: АС3, 2 ch, 384 Кбит/с

Сэмпл

MI
Общее
Уникальный идентификатор : 210908413659004706134366832288358408519 (0x9EAB7BA1E262DC9B8058A3C05F572147)
Полное имя : E:BLUEBIRDWelkome.Home.2013.HDTV-BLUEBIRD.mkv
Формат : Matroska
Версия формата : Version 4 / Version 2
Размер файла : 4,86 Гбайт
Продолжительность : 1 ч. 50 м.
Общий поток : 6275 Кбит/сек
Дата кодирования : UTC 2015-09-09 16:55:01
Программа кодирования : mkvmerge v8.3.0 ('Over the Horizon') 64bit
Библиотека кодирования : libebml v1.3.1 + libmatroska v1.4.2
DURATION : 01:50:51.552000000
NUMBER_OF_FRAMES : 207860
NUMBER_OF_BYTES : 319272960
_STATISTICS_WRITING_APP : mkvmerge v8.3.0 ('Over the Horizon') 64bit
_STATISTICS_WRITING_DATE_UTC : 2015-09-09 16:55:01
_STATISTICS_TAGS : BPS DURATION NUMBER_OF_FRAMES NUMBER_OF_BYTES

Видео
Идентификатор : 1
Формат : AVC
Формат/Информация : Advanced Video Codec
Профиль формата : [email protected]
Параметр CABAC формата : Да
Параметр ReFrames формата : 4 кадра
Идентификатор кодека : V_MPEG4/ISO/AVC
Продолжительность : 1 ч. 50 м.
Битрейт : 5766 Кбит/сек
Ширина : 1920 пикселей
Высота : 1080 пикселей
Соотношение сторон : 16:9
Режим частоты кадров : Постоянный
Частота кадров : 25,000 кадров/сек
Стандарт вещания : Component
Цветовое пространство : YUV
Субдискретизация насыщенности : 4:2:0
Битовая глубина : 8 бит
Тип развёртки : Чересстрочная
Порядок развёртки : Верхнее поле первое
Бит/(Пиксели*Кадры) : 0.111
Размер потока : 4,46 Гбайт (92%)
Default : Да
Forced : Нет
Основные цвета : BT.709
Характеристики трансфера : BT.709
Коэффициенты матрицы : BT.709

Аудио
Идентификатор : 2
Формат : AC-3
Формат/Информация : Audio Coding 3
Расширение режима : CM (complete main)
Параметр Endianness формата : Big
Идентификатор кодека : A_AC3
Продолжительность : 1 ч. 50 м.
Вид битрейта : Постоянный
Битрейт : 384 Кбит/сек
Каналы : 2 канала
Расположение каналов : Front: L R
Частота : 48,0 КГц
Битовая глубина : 16 бит
Метод сжатия : С потерями
Задержка видео : 28 мс.
Размер потока : 304 Мбайт (6%)
Язык : Russian
Default : Да
Forced : Нет
Награды
Кинотавр, 2014 год
Номинации (1):
Главный приз

Карловы Вары, 2014 год
Номинации (1):
Хрустальный глобус
Скриншоты

Релиз от:
 

Вложения

  • 13,2 KB Просмотры: 1
    Личеров 0
    Сидеров 0
    Файлов 1
    Объем 4,9 GB

Привет!

Мы группа людей которые решили помочь другим в решении их проблем, а так же пользователям с поиском самых свежих и качественных инфопродуктов. За 4 с небольшим месяца мы создали этот форум на который заходят ежедневно тысячи человек и посещаемость постоянно растёт. Мы создали панель лицензирования для защиты PHP скриптов от воровства и SEO панель для мониторинга наших сайтов и выбора верной стратегии их развития. Мы надеемся что то что мы создали пригодится Вам и возможно Вы поможете нам развиваться и совершенствоваться вместе с Вами.

Статистика форума

Темы
410.887
Сообщения
469.448
Пользователи
87.909
Новый пользователь
MrDm

Приложения форума для iOS и Android


У ркн там нет власти ;)
Приватные разговоры
Помощь Пользователи
    Вы не присоединились ни к одной комнате.