За последнюю неделю опубликовано 115 новых материалов.
Инструкция новичку Путеводитель по форуму Прокси для Telegram Показать подсказки , это бомба!

Скачать Ведьмина служба доставки / Majo no takkyûbin (1989) BDRip-AVC бесплатно через торрент

  • Поучаствуй (в качестве покупателя) в любых пяти совместных покупках (кроме завершённых и "Моментальных") и получи группу "Новичок" навсегда -> ссылка на раздел
  • Получай до 480 рублей за каждого приглашенного пользователя!
    представляем Вам очередное расширение партнерской программы, подробности описаны тут -> ссылка
  • 90% материалов доступно к скачиванию после простой регистрации!
    Если же ты хочешь скачивать материалы без требования оставлять отзывы то получи группу "Новичок", 10 способов повышения описаны тут -> ссылка
  • К сожалению количество битых ссылок растет и мы уже не можем их оперативно восстанавливать поэтому просим помощи у каждого нашего пользователя.
    С сегодняшнего дня, за каждую восстановленную ссылку мы заплатим Вам.
    Подробнее тут -> ссылка
  • Перенесем твои заслуги с другого ресурса!
    Мы понимаем как сложно прокачивать аккаунты на форумах, вроде раскачал аккаунт, а тут появляется ресурс в 100 раз круче но тоже с системой прокачки и снова качать аккаунт...
    Предлагаем вам перенести Ваши заслуги на другом подобном ресурсе к нам.
    Подробности описаны тут -> ссылка
  • Вы можете получать по 2.5% с каждой покупки и продажи на маркете! Подробности в теме Партнёрская программа

Torrent_Bot

Торрент-Бот
Бот форума
4 Окт 2016
118
147
20
Информация о фильме
Название: Ведьмина служба доставки
Оригинальное название: Kiki's Delivery Service
Год выхода: 1989
Жанр: приключения, комедия, драма, фэнтези
Режиссер: Хаяо Миядзаки
В ролях: Минами Такаяма Рэй Сакума Каппэй Ямагути Кэйко Тода Миэко Нобусава Коити Миура Харуко Като Хироко Сэки Юрико Футидзаки Коити Ямадера

О фильме:
Обаятельная сказка о 13-летней девочке-ведьме Кики, которая, согласно старинному закону, должна прожить год в городе, где ведьм нет. Кики и ее котенок Дзидзи находят такой приморский городок, где и знакомится с добрым пекарем, который помогает ей начать собственное дело - Экстренную Службу Доставки. Работа знакомит Кики с множеством различных людей, предоставляя возможность обрести новых друзей и совершить массу всевозможных проделок.


7c5809d63892e1801c18ab2c5fd6b31f.gif
Страна: Япония
Продолжительность: 01:43:02
Перевод: Дублированный

Файл
Кодек: h.264
Качество: BDRip-AVC
Видео: 1024x552, 23.976 fps, 1 831 Kbps, 0.135 Bits/(Pixel*Frame)
Audio: AC3, 192 Kbps, 2 channels, Русский (полное дублирование)

MI
Format : Matroska
Format version : Version 2
File size : 1.46 GiB
Duration : 1h 43mn
Overall bit rate : 2 025 Kbps
Encoded date : UTC 2013-01-23 09:05:32
Writing application : mkvmerge v5.0.1 ('Es ist Sommer') built on Oct 24 2011 19:45:06
Writing library : libebml v1.2.2 + libmatroska v1.3.0

Video
ID : 1
Format : AVC
Format/Info : Advanced Video Codec
Format profile : High@L4.1
Format settings, CABAC : Yes
Format settings, ReFrames : 14 frames
Codec ID : V_MPEG4/ISO/AVC
Duration : 1h 43mn
Bit rate : 1 831 Kbps
Width : 1 024 pixels
Height : 552 pixels
Display aspect ratio : 1.85:1
Frame rate : 23.976 fps
Color space : YUV
Chroma subsampling : 4:2:0
Bit depth : 8 bits
Scan type : Progressive
Bits/(Pixel*Frame) : 0.135
Stream size : 1.29 GiB (89%)
Writing library : x264 core 129 r2230 1cffe9f
Encoding settings : cabac=1 / ref=14 / deblock=1:0:0 / analyse=0x3:0x133 / me=umh / subme=11 / psy=1 / psy_rd=1.00:0.00 / mixed_ref=1 / me_range=32 / chroma_me=1 / trellis=2 / 8x8dct=1 / cqm=0 / deadzone=21,11 / fast_pskip=0 / chroma_qp_offset=-2 / threads=9 / lookahead_threads=1 / sliced_threads=0 / nr=0 / decimate=1 / interlaced=0 / bluray_compat=0 / constrained_intra=0 / bframes=8 / b_pyramid=2 / b_adapt=2 / b_bias=0 / direct=3 / weightb=1 / open_gop=0 / weightp=2 / keyint=250 / keyint_min=23 / scenecut=40 / intra_refresh=0 / rc_lookahead=60 / rc=2pass / mbtree=1 / bitrate=1831 / ratetol=1.0 / qcomp=0.60 / qpmin=0 / qpmax=69 / qpstep=4 / cplxblur=20.0 / qblur=0.5 / ip_ratio=1.40 / aq=1:1.00
Language : English
Default : Yes
Forced : No

Audio
ID : 2
Format : AC-3
Format/Info : Audio Coding 3
Mode extension : CM (complete main)
Format settings, Endianness : Big
Codec ID : A_AC3
Duration : 1h 43mn
Bit rate mode : Constant
Bit rate : 192 Kbps
Channel(s) : 2 channels
Channel positions : Front: L R
Sampling rate : 48.0 KHz
Bit depth : 16 bits
Compression mode : Lossy
Stream size : 142 MiB (9%)
Title : Русский AC3, 2ch 192 kbps (полное дублирование)
Language : Russian
Default : Yes
Forced : No

Скриншоты
6575dc9ef486116e94fbb69cdfa59f6c.jpg8f567f5ce9584aa59078debf2128918c.jpg97a49f8a4e47b97574c1e1eef3df9a02.jpge203e8f7b99f1fdc3e88b7c26a6c3ac6.jpg
 

Вложения

Привет!

Мы группа людей которые решили помочь другим в решении их проблем, а так же пользователям с поиском самых свежих и качественных инфопродуктов. За 4 с небольшим месяца мы создали этот форум на который заходят ежедневно тысячи человек и посещаемость постоянно растёт. Мы создали панель лицензирования для защиты PHP скриптов от воровства и SEO панель для мониторинга наших сайтов и выбора верной стратегии их развития. Мы надеемся что то что мы создали пригодится Вам и возможно Вы поможете нам развиваться и совершенствоваться вместе с Вами.

Статистика форума

Темы
394.404
Сообщения
446.702
Пользователи
75.279
Новый пользователь
Гайрат

Приложения форума для iOS и Android


У ркн там нет власти ;)
Приватные разговоры
Помощь Пользователи
    Вы не присоединились ни к одной комнате.