За последнюю неделю опубликовано 115 новых материалов.
Инструкция новичку Путеводитель по форуму Прокси для Telegram Показать подсказки , это бомба!

Скачать Ведьмина служба доставки / Majo no takkyûbin (1989) BDRip 720p от NoLimits-Team бесплатно через торрент

  • Поучаствуй (в качестве покупателя) в любых пяти совместных покупках (кроме завершённых и "Моментальных") и получи группу "Новичок" навсегда -> ссылка на раздел
  • Получай до 480 рублей за каждого приглашенного пользователя!
    представляем Вам очередное расширение партнерской программы, подробности описаны тут -> ссылка
  • 90% материалов доступно к скачиванию после простой регистрации!
    Если же ты хочешь скачивать материалы без требования оставлять отзывы то получи группу "Новичок", 10 способов повышения описаны тут -> ссылка
  • К сожалению количество битых ссылок растет и мы уже не можем их оперативно восстанавливать поэтому просим помощи у каждого нашего пользователя.
    С сегодняшнего дня, за каждую восстановленную ссылку мы заплатим Вам.
    Подробнее тут -> ссылка
  • Перенесем твои заслуги с другого ресурса!
    Мы понимаем как сложно прокачивать аккаунты на форумах, вроде раскачал аккаунт, а тут появляется ресурс в 100 раз круче но тоже с системой прокачки и снова качать аккаунт...
    Предлагаем вам перенести Ваши заслуги на другом подобном ресурсе к нам.
    Подробности описаны тут -> ссылка
  • Вы можете получать по 2.5% с каждой покупки и продажи на маркете! Подробности в теме Партнёрская программа

Torrent_Bot

Торрент-Бот
Бот форума
4 Окт 2016
118
147
20
Информация о фильме
Название: Ведьмина служба доставки
Оригинальное название: Kiki's Delivery Service
Год выхода: 1989
Жанр: Приключения, комедия, драма, сказка
Режиссер: Миядзаки Хаяо
Выпущено: Япония
Продолжительность: 01:43:03
Перевод: Дублированный, Английский, Японский
В ролях: Минами Такаяма Рэй Сакума Каппэй Ямагути Кэйко Тода Миэко Нобусава Коити Миура Харуко Като Хироко Сэки Юрико Футидзаки Коити Ямадера

Сюжет фильма
Молодая ведьма Кики по достижению 13 лет должна прожить определенное время среди людей. Кики вместе со своим котом Джиджи отправляется в город, где и знакомится с добрым пекарем, который помогает ей начать собственное дело — Экстренную Службу Доставки.
Работа знакомит Кики с множеством различных людей и предоставляет возможность обрести новых друзей и совершать массу всевозможных проделок.

Файл
Качество: BDRip 720p (DVD5) (исходник BDRemux)
Видео: 1280x692, 5299 Кбит/сек, 23,976 кадр/сек, AVC, x264, High@L4.1, 1.85:1, 0.250 Бит/[Пиксели*Кадры], 2pass
Аудио 1: AC-3, 192 Кбит/сек, 2 канала(ов), 48,0 КГц - Дублированный
Аудио 2: AC-3, 192 Кбит/сек, 2 канала(ов), 48,0 КГц - Английский
Аудио 3: AC-3, 384 Кбит/сек, 2 канала(ов), 48,0 КГц - Японский
Субтитры: Русские | Полные
Чаптеры: Есть

7c5809d63892e1801c18ab2c5fd6b31f.gif


Релиз Группа | Автор Рипа:

Скриншоты
MediaInfo
Format : Matroska
Format version : Version 4 / Version 2
File size : 4.37 GiB
Duration : 1h 43mn
Overall bit rate : 6 070 Kbps
Movie name : Ведьмина служба доставки.(1989).BDRip.720p.(DVD5).[NoLimits-Team]
Encoded date : UTC 2013-03-19 14:06:54
Writing application : mkvmerge v6.0.0 ('Coming Up For Air') built on Jan 20 2013 09:52:00
Writing library : libebml v1.3.0 + libmatroska v1.4.0

Video
ID : 1
Format : AVC
Format/Info : Advanced Video Codec
Format profile : High@L4.1
Format settings, CABAC : Yes
Format settings, ReFrames : 9 frames
Codec ID : V_MPEG4/ISO/AVC
Duration : 1h 43mn
Bit rate : 5 299 Kbps
Width : 1 280 pixels
Height : 692 pixels
Display aspect ratio : 1.85:1
Frame rate mode : Constant
Frame rate : 23.976 fps
Color space : YUV
Chroma subsampling : 4:2:0
Bit depth : 8 bits
Scan type : Progressive
Bits/(Pixel*Frame) : 0.250
Stream size : 3.73 GiB (85%)
Title : Ведьмина служба доставки.(1989).BDRip.720p.(DVD5).[NoLimits-Team]
Writing library : x264 core 129 r2245 bc13772
Encoding settings : cabac=1 / ref=9 / deblock=1:0:0 / analyse=0x3:0x133 / me=umh / subme=11 / psy=1 / psy_rd=1.00:0.00 / mixed_ref=1 / me_range=64 / chroma_me=1 / trellis=2 / 8x8dct=1 / cqm=0 / deadzone=21,11 / fast_pskip=0 / chroma_qp_offset=-2 / threads=9 / lookahead_threads=1 / sliced_threads=0 / nr=0 / decimate=1 / interlaced=0 / bluray_compat=0 / constrained_intra=0 / bframes=14 / b_pyramid=2 / b_adapt=2 / b_bias=0 / direct=3 / weightb=1 / open_gop=0 / weightp=2 / keyint=240 / keyint_min=23 / scenecut=40 / intra_refresh=0 / rc_lookahead=60 / rc=2pass / mbtree=1 / bitrate=5299 / ratetol=1.0 / qcomp=0.60 / qpmin=0 / qpmax=69 / qpstep=4 / cplxblur=20.0 / qblur=0.5 / ip_ratio=1.40 / aq=1:1.00
Language : English
Default : Yes
Forced : No

Audio #1
ID : 2
Format : AC-3
Format/Info : Audio Coding 3
Mode extension : CM (complete main)
Format settings, Endianness : Big
Codec ID : A_AC3
Duration : 1h 43mn
Bit rate mode : Constant
Bit rate : 192 Kbps
Channel(s) : 2 channels
Channel positions : Front: L R
Sampling rate : 48.0 KHz
Bit depth : 16 bits
Compression mode : Lossy
Stream size : 142 MiB (3%)
Title : Дублированный
Language : Russian
Default : Yes
Forced : No

Audio #2
ID : 3
Format : AC-3
Format/Info : Audio Coding 3
Format profile : Dolby Digital
Mode extension : CM (complete main)
Format settings, Endianness : Big
Codec ID : A_AC3
Duration : 1h 43mn
Bit rate mode : Constant
Bit rate : 192 Kbps
Channel(s) : 2 channels
Channel positions : Front: L R
Sampling rate : 48.0 KHz
Bit depth : 16 bits
Compression mode : Lossy
Stream size : 142 MiB (3%)
Title : English
Language : English
Default : No
Forced : No

Audio #3
ID : 4
Format : AC-3
Format/Info : Audio Coding 3
Mode extension : CM (complete main)
Format settings, Endianness : Big
Codec ID : A_AC3
Duration : 1h 43mn
Bit rate mode : Constant
Bit rate : 384 Kbps
Channel(s) : 2 channels
Channel positions : Front: L R
Sampling rate : 48.0 KHz
Bit depth : 16 bits
Compression mode : Lossy
Stream size : 283 MiB (6%)
Title : Japanese
Language : Japanese
Default : No
Forced : No

Text
ID : 5
Format : UTF-8
Codec ID : S_TEXT/UTF8
Codec ID/Info : UTF-8 Plain Text
Title : Русские (полные)
Language : Russian
Default : No
Forced : No

Menu
00:05:00.000 : :Chapter 01
00:10:00.000 : :Chapter 02
00:15:00.000 : :Chapter 03
00:25:00.000 : :Chapter 04
00:35:00.000 : :Chapter 05
00:45:00.000 : :Chapter 06
00:55:00.000 : :Chapter 07
01:05:00.000 : :Chapter 08
01:15:00.000 : :Chapter 09
01:25:00.000 : :Chapter 10
01:35:00.000 : :Chapter 11
 

Вложения

Привет!

Мы группа людей которые решили помочь другим в решении их проблем, а так же пользователям с поиском самых свежих и качественных инфопродуктов. За 4 с небольшим месяца мы создали этот форум на который заходят ежедневно тысячи человек и посещаемость постоянно растёт. Мы создали панель лицензирования для защиты PHP скриптов от воровства и SEO панель для мониторинга наших сайтов и выбора верной стратегии их развития. Мы надеемся что то что мы создали пригодится Вам и возможно Вы поможете нам развиваться и совершенствоваться вместе с Вами.

Статистика форума

Темы
394.377
Сообщения
446.607
Пользователи
75.241
Новый пользователь
cj-electron

Приложения форума для iOS и Android


У ркн там нет власти ;)
Приватные разговоры
Помощь Пользователи
    Вы не присоединились ни к одной комнате.