За последнюю неделю опубликовано 29 новых материалов.
Инструкция новичку Путеводитель по форуму Прокси для Telegram Показать подсказки , это бомба!

Скачать Ведьма, явившаяся из моря / The Witch Who Came from the Sea (1976) BDRip 1080p | L1 бесплатно через торрент

  • Поучаствуй (в качестве покупателя) в любых пяти совместных покупках (кроме завершённых и "Моментальных") и получи группу "Новичок" навсегда -> ссылка на раздел
  • Получай до 480 рублей за каждого приглашенного пользователя!
    представляем Вам очередное расширение партнерской программы, подробности описаны тут -> ссылка
  • 90% материалов доступно к скачиванию после простой регистрации!
    Если же ты хочешь скачивать материалы без требования оставлять отзывы то получи группу "Новичок", 10 способов повышения описаны тут -> ссылка
  • К сожалению количество битых ссылок растет и мы уже не можем их оперативно восстанавливать поэтому просим помощи у каждого нашего пользователя.
    С сегодняшнего дня, за каждую восстановленную ссылку мы заплатим Вам.
    Подробнее тут -> ссылка
  • Перенесем твои заслуги с другого ресурса!
    Мы понимаем как сложно прокачивать аккаунты на форумах, вроде раскачал аккаунт, а тут появляется ресурс в 100 раз круче но тоже с системой прокачки и снова качать аккаунт...
    Предлагаем вам перенести Ваши заслуги на другом подобном ресурсе к нам.
    Подробности описаны тут -> ссылка
  • Вы можете получать по 2.5% с каждой покупки и продажи на маркете! Подробности в теме Партнёрская программа
Если Вы не хотите скачивать, Вы всегда можетепосмотретьонлайн, просто нажмите кнопку ниже :

Открыть плеер

Torrent_Bot

Торрент-Бот
Бот форума
4 Окт 2016
96
155
20
Информация о фильме
Название: Ведьма, явившаяся из моря
Оригинальное название: The Witch Who Came from the Sea
Год выхода: 1976
Жанр: драма, триллер
Режиссер: Мэтт Симбер
В ролях: Милли Перкинс, Лонни Чэпмен, Ванесса Браун, Пегги Фьюри, Жан Пьер Кампс, Марк Ливингстон, Рик Джейсон, Стэффорд Морган, Ричард Кеннеди, Джордж «Бак» Флауэр

О фильме:
Молодая женщина Молли безумно любила телевизор, море, и собственного отца, — капитана, пропавшего в океане пятнадцать лет назад. Во всяком случае, именно эту версию она рассказывала своим племянникам. В небольшом американском городке, где она живёт, жители почитают её как святую и не подозревают, что её прошлое хранит не самые приятные секреты...



Страна: США
Студия: Aquarius Films Co
Продолжительность: 01:27:49
Перевод: Любительский (одноголосый) den904

Файл
Кодек: x264
Качество: BDRip 1080p
Видео: MPEG4 AVC, 8270 Кбит/с, 1920x816, 23,976 кадра/сек
Аудио #1: Русский (AC3, 2 ch, 192 Кбит/с)
Аудио #2: Английский (AC3, 1 ch, 640 Кбит/с)


MI
Общее
Уникальный идентификатор : 84828335250144599561555249034510004347 (0x3FD157D5575433309B311A02B25CF07B)
Полное имя : E:The.witch.who.came.from.the.sea.1976.BDRip 1080p.funtden.mkv
Формат : Matroska
Версия формата : Version 4 / Version 2
Размер файла : 5,58 Гбайт
Продолжительность : 1 ч. 27 м.
Общий поток : 9104 Кбит/сек
Дата кодирования : UTC 2018-08-26 15:25:05
Программа кодирования : mkvmerge v22.0.0 ('At The End Of The World') 64-bit
Библиотека кодирования : libebml v1.3.5 + libmatroska v1.4.8
DURATION : 01:27:49.120000000
NUMBER_OF_FRAMES : 164660
NUMBER_OF_BYTES : 126458880
_STATISTICS_WRITING_APP : mkvmerge v22.0.0 ('At The End Of The World') 64-bit
_STATISTICS_WRITING_DATE_UTC : 2018-08-26 15:25:05
_STATISTICS_TAGS : BPS DURATION NUMBER_OF_FRAMES NUMBER_OF_BYTES

Видео
Идентификатор : 1
Формат : AVC
Формат/Информация : Advanced Video Codec
Профиль формата : High@L4.1
Параметр CABAC формата : Да
Параметр ReFrames формата : 5 кадров
Идентификатор кодека : V_MPEG4/ISO/AVC
Продолжительность : 1 ч. 27 м.
Битрейт : 8270 Кбит/сек
Ширина : 1920 пикселей
Высота : 816 пикселей
Соотношение сторон : 2,35:1
Режим частоты кадров : Постоянный
Частота кадров : 23,976 кадра/сек
Цветовое пространство : YUV
Субдискретизация насыщенности : 4:2:0
Битовая глубина : 8 бит
Тип развёртки : Прогрессивная
Бит/(Пиксели*Кадры) : 0.220
Размер потока : 4,96 Гбайт (89%)
Заголовок : The.witch.who.came.from.the.sea.1976.BDRip 1080p.funtden
Библиотека кодирования : x264 core 148 r2692 64f4e24
Настройки программы : cabac=1 / ref=5 / deblock=1:-1:-1 / analyse=0x3:0x133 / me=umh / subme=7 / psy=1 / psy_rd=1.00:0.00 / mixed_ref=1 / me_range=16 / chroma_me=1 / trellis=1 / 8x8dct=1 / cqm=0 / deadzone=21,11 / fast_pskip=0 / chroma_qp_offset=-2 / threads=6 / lookahead_threads=1 / sliced_threads=0 / nr=0 / decimate=1 / interlaced=0 / bluray_compat=0 / constrained_intra=0 / bframes=3 / b_pyramid=2 / b_adapt=2 / b_bias=0 / direct=3 / weightb=1 / open_gop=0 / weightp=2 / keyint=240 / keyint_min=23 / scenecut=40 / intra_refresh=0 / rc_lookahead=50 / rc=2pass / mbtree=1 / bitrate=8270 / ratetol=1.0 / qcomp=0.60 / qpmin=10 / qpmax=51 / qpstep=4 / cplxblur=20.0 / qblur=0.5 / vbv_maxrate=62500 / vbv_bufsize=78125 / nal_hrd=none / filler=0 / ip_ratio=1.40 / aq=1:1.00
Default : Да
Forced : Нет

Аудио #1
Идентификатор : 2
Формат : AC-3
Формат/Информация : Audio Coding 3
Расширение режима : CM (complete main)
Параметр Endianness формата : Big
Идентификатор кодека : A_AC3
Продолжительность : 1 ч. 27 м.
Вид битрейта : Постоянный
Битрейт : 192 Кбит/сек
Каналы : 2 канала
Расположение каналов : Front: L R
Частота : 48,0 КГц
Битовая глубина : 16 бит
Метод сжатия : С потерями
Размер потока : 121 Мбайт (2%)
Заголовок : Любительский (одноголосый) den904
Язык : Russian
Default : Да
Forced : Да

Аудио #2
Идентификатор : 3
Формат : AC-3
Формат/Информация : Audio Coding 3
Расширение режима : CM (complete main)
Параметр Endianness формата : Big
Идентификатор кодека : A_AC3
Продолжительность : 1 ч. 27 м.
Вид битрейта : Постоянный
Битрейт : 640 Кбит/сек
Каналы : 1 канал
Расположение каналов : Front: C
Частота : 48,0 КГц
Битовая глубина : 16 бит
Метод сжатия : С потерями
Размер потока : 402 Мбайт (7%)
Заголовок : Original (Eng)
Язык : English
Default : Нет
Forced : Нет

Меню
00:00:00.000 : en:00:00:00.000
00:07:14.392 : en:00:07:14.392
00:12:58.987 : en:00:12:58.987
00:22:30.432 : en:00:22:30.432
00:28:45.474 : en:00:28:45.474
00:35:44.601 : en:00:35:44.601
00:44:05.810 : en:00:44:05.810
00:51:16.991 : en:00:51:16.991
01:00:03.391 : en:01:00:03.391
01:07:08.691 : en:01:07:08.691
01:13:22.857 : en:01:13:22.857
01:21:11.617 : en:01:21:11.617

Скриншоты


 

Вложения

  • 28,9 KB Просмотры: 1
    Личеров 0
    Сидеров 0
    Файлов 1
    Объем 5,6 GB

Привет!

Мы группа людей которые решили помочь другим в решении их проблем, а так же пользователям с поиском самых свежих и качественных инфопродуктов. За 4 с небольшим месяца мы создали этот форум на который заходят ежедневно тысячи человек и посещаемость постоянно растёт. Мы создали панель лицензирования для защиты PHP скриптов от воровства и SEO панель для мониторинга наших сайтов и выбора верной стратегии их развития. Мы надеемся что то что мы создали пригодится Вам и возможно Вы поможете нам развиваться и совершенствоваться вместе с Вами.

Статистика форума

Темы
406.519
Сообщения
464.552
Пользователи
82.894
Новый пользователь
Вероника Жилкина

Приложения форума для iOS и Android


У ркн там нет власти ;)
Приватные разговоры
Помощь Пользователи
    Вы не присоединились ни к одной комнате.