За последнюю неделю опубликовано 193 новых материалов.
Инструкция новичку Путеводитель по форуму Прокси для Telegram Показать подсказки , это бомба!

Скачать Вечное сияние чистого разума / Eternals Sunshine of the Spotless Mind (2004) DVDRip-AVC | D | Fullscreen бесплатно через торрент

  • Поучаствуй (в качестве покупателя) в любых пяти совместных покупках (кроме завершённых и "Моментальных") и получи группу "Новичок" навсегда -> ссылка на раздел
  • Получай до 480 рублей за каждого приглашенного пользователя!
    представляем Вам очередное расширение партнерской программы, подробности описаны тут -> ссылка
  • 90% материалов доступно к скачиванию после простой регистрации!
    Если же ты хочешь скачивать материалы без требования оставлять отзывы то получи группу "Новичок", 10 способов повышения описаны тут -> ссылка
  • К сожалению количество битых ссылок растет и мы уже не можем их оперативно восстанавливать поэтому просим помощи у каждого нашего пользователя.
    С сегодняшнего дня, за каждую восстановленную ссылку мы заплатим Вам.
    Подробнее тут -> ссылка
  • Перенесем твои заслуги с другого ресурса!
    Мы понимаем как сложно прокачивать аккаунты на форумах, вроде раскачал аккаунт, а тут появляется ресурс в 100 раз круче но тоже с системой прокачки и снова качать аккаунт...
    Предлагаем вам перенести Ваши заслуги на другом подобном ресурсе к нам.
    Подробности описаны тут -> ссылка
  • Вы можете получать по 2.5% с каждой покупки и продажи на маркете! Подробности в теме Партнёрская программа
Если Вы не хотите скачивать, Вы всегда можетепосмотретьонлайн, просто нажмите кнопку ниже :

Открыть плеер

Torrent_Bot

Торрент-Бот
Бот форума
4 Окт 2016
124
94
20



Информация о фильме
Название: Вечное сияние чистого разума
Оригинальное название: Eternals Sunshine of the Spotless Mind
Год выхода: 2004
Жанр: мелодрама, фантастика
Режиссер: Мишель Гондри / Michel Gondry
В ролях: Джим Керри, Кейт Уинслет, Элайджа Вуд, Дэвид Кросс, Марк Руффало, Том Уилкинсон, Кирстен Данст, Джейн Адамс, Томас Джей Райан, Джерри Роберт Бирн

О фильме:
Науке теперь доступно стирать из памяти людей все тревожащие их воспоминания. Двое влюблённых, Джоэль и Клементина, в очередной раз ссорятся и девушка решает его забыть с помощью этого нового научного достижения. Поэтому, когда Джоэль приходит к ней на работу с подарком для примирения, то застаёт её с другим, а сама она смотрит на него так, словно впервые видит. Узнав, что Клементина теперь его не помнит, Джоэль тоже обращается в эту корпорацию и просит избавить его от всех воспоминаний о любимой... Но что это? Его подсознание упoрно сопротивляется процессу, мастерски пряча в закоулках мозга ускользающую Клементину, создавая массу хлопот работникам, взявшимся за эту процедуру. Да и впервые ли он в этой компании, стирающей в мозгу "хлам", мешающий умиротворению?.. И на вечно ли остаётся это "сияние чистого разума"?..



Страна: США
Продолжительность: 01:47:46
Перевод: Профессиональный (дублированный)

Файл
Качество: DVDRip-AVC
Формат: MKV
Видео: 720x480@720x540, 23.976 fps, MPEG-4 AVC, 2067 kbps avg
Аудио 1: Russian: 48 kHz, AC3, 6 ch, ~384 kbps avg
Аудио 2: English: 48 kHz, AC3, 6 ch, ~448 kbps avg
Субтитры: Русские (Full), Английские (Full)

MediaInfo
General
Unique ID : 147071102965604440617032357056824666550 (0x6EA4DD36AD421614B3303F315506E9B6)
Complete name : D:Eternal.Sunshine.Of.The.Spotless.Mind.2004.DVDRip.x264.Fullscreen.mkv
Format : Matroska
Format version : Version 4
File size : 2.18 GiB
Duration : 1 h 47 min
Overall bit rate : 2 902 kb/s
Encoded date : UTC 2019-12-01 06:17:16
Writing application : mkvmerge v37.0.0 ('Leave It') 64-bit
Writing library : libebml v1.3.9 + libmatroska v1.5.2

Video
ID : 1
Format : AVC
Format/Info : Advanced Video Codec
Format profile : High@L4.1
Format settings : CABAC / 12 Ref Frames
Format settings, CABAC : Yes
Format settings, Reference frames : 12 frames
Codec ID : V_MPEG4/ISO/AVC
Duration : 1 h 47 min
Bit rate : 2 067 kb/s
Width : 720 pixels
Height : 480 pixels
Display aspect ratio : 4:3
Frame rate mode : Constant
Frame rate : 23.976 (24000/1001) FPS
Color space : YUV
Chroma subsampling : 4:2:0
Bit depth : 8 bits
Scan type : Progressive
Bits/(Pixel*Frame) : 0.249
Stream size : 1.56 GiB (71%)
Writing library : x264 core 158 r2988 7817004
Encoding settings : cabac=1 / ref=12 / deblock=1:-3:-3 / analyse=0x3:0x113 / me=umh / subme=11 / psy=1 / psy_rd=1.00:0.00 / mixed_ref=1 / me_range=32 / chroma_me=1 / trellis=2 / 8x8dct=1 / cqm=0 / deadzone=21,11 / fast_pskip=0 / chroma_qp_offset=-2 / threads=3 / lookahead_threads=1 / sliced_threads=0 / nr=0 / decimate=1 / interlaced=0 / bluray_compat=0 / constrained_intra=0 / bframes=10 / b_pyramid=2 / b_adapt=2 / b_bias=0 / direct=1 / weightb=1 / open_gop=0 / weightp=2 / keyint=240 / keyint_min=23 / scenecut=40 / intra_refresh=0 / rc_lookahead=60 / rc=crf / mbtree=0 / crf=17.8 / qcomp=0.60 / qpmin=0 / qpmax=69 / qpstep=4 / vbv_maxrate=50000 / vbv_bufsize=62500 / crf_max=0.0 / nal_hrd=none / filler=0 / ip_ratio=1.40 / pb_ratio=1.30 / aq=3:0.80
Language : English
Default : Yes
Forced : No

Audio #1
ID : 2
Format : AC-3
Format/Info : Audio Coding 3
Commercial name : Dolby Digital
Codec ID : A_AC3
Duration : 1 h 47 min
Bit rate mode : Constant
Bit rate : 384 kb/s
Channel(s) : 6 channels
Channel layout : L R C LFE Ls Rs
Sampling rate : 48.0 kHz
Frame rate : 31.250 FPS (1536 SPF)
Bit depth : 16 bits
Compression mode : Lossy
Stream size : 296 MiB (13%)
Language : Russian
Service kind : Complete Main
Default : Yes
Forced : No

Audio #2
ID : 3
Format : AC-3
Format/Info : Audio Coding 3
Commercial name : Dolby Digital
Codec ID : A_AC3
Duration : 1 h 47 min
Bit rate mode : Constant
Bit rate : 448 kb/s
Channel(s) : 6 channels
Channel layout : L R C LFE Ls Rs
Sampling rate : 48.0 kHz
Frame rate : 31.250 FPS (1536 SPF)
Bit depth : 16 bits
Compression mode : Lossy
Stream size : 345 MiB (15%)
Language : English
Service kind : Complete Main
Default : No
Forced : No

Text #1
ID : 4
Format : UTF-8
Codec ID : S_TEXT/UTF8
Codec ID/Info : UTF-8 Plain Text
Duration : 1 h 41 min
Bit rate : 102 b/s
Count of elements : 1255
Stream size : 76.7 KiB (0%)
Language : Russian
Default : No
Forced : No

Text #2
ID : 5
Format : UTF-8
Codec ID : S_TEXT/UTF8
Codec ID/Info : UTF-8 Plain Text
Duration : 1 h 41 min
Bit rate : 73 b/s
Count of elements : 1525
Stream size : 54.9 KiB (0%)
Language : English
Default : No
Forced : No

Menu
00:00:00.000 : en:Valentine's Day
00:03:42.238 : en:Meeting Clementine
00:10:29.812 : en:Hanging Out
00:13:24.153 : en:Honeymoon On Ice
00:17:36.188 : en:Main Titles
00:19:33.772 : en:Getting Erased
00:25:10.692 : en:Lacuna Inc.
00:27:59.361 : en:I Want It Done
00:35:07.288 : en:Erasing You
00:43:05.266 : en:Blessed Are The Forgetful
00:49:27.648 : en:Tangerine
00:52:12.479 : en:Wake Me Up
00:59:23.309 : en:Baby Joel
01:02:52.018 : en:Off The Map
01:15:49.127 : en:The Blameless Vestal's Lot
01:21:27.132 : en:Remember Me...
01:24:21.306 : en:Goodbye, Joel
01:31:43.915 : en:The Next Morning
01:35:51.162 : en:Change Your Heart...
01:44:04.571 : en:End Titles
Сравнения


Скриншоты

 

Вложения

  • 11,9 KB Просмотры: 0
    Личеров 0
    Сидеров 0
    Файлов 1
    Объем 2,2 GB
Ваш e-mail не будет опубликован. Он потребуется для подтверждения Вашего поста.
Оформление текста Нажмите «Ввод», чтобы отправить ответ.

Привет!

Мы группа людей которые решили помочь другим в решении их проблем, а так же пользователям с поиском самых свежих и качественных инфопродуктов. За 4 с небольшим месяца мы создали этот форум на который заходят ежедневно тысячи человек и посещаемость постоянно растёт. Мы создали панель лицензирования для защиты PHP скриптов от воровства и SEO панель для мониторинга наших сайтов и выбора верной стратегии их развития. Мы надеемся что то что мы создали пригодится Вам и возможно Вы поможете нам развиваться и совершенствоваться вместе с Вами.

Статистика форума

Темы
378.715
Сообщения
417.913
Пользователи
49.439
Новый пользователь
Нади

Приложения форума для iOS и Android


У ркн там нет власти ;)
Приватные разговоры
Помощь Пользователи
    Вы не присоединились ни к одной комнате.